<?xml version="1.0" standalone="no"?>
<!DOCTYPE svg PUBLIC "-//W3C//DTD SVG 1.1//EN" "http://www.w3.org/Graphics/SVG/1.1/DTD/svg11.dtd" >
<svg xmlns="http://www.w3.org/2000/svg">
<metadata></metadata>
<defs>
<font id="ProximaNovaRgRegular" horiz-adv-x="572" >
<font-face units-per-em="1000" ascent="790" descent="-210" />
<missing-glyph horiz-adv-x="258" />
<glyph unicode="ffj" horiz-adv-x="792" d="M454 0h-75v417h-80v66h80v37q0 74 38 115.5t102 41.5q46 0 73 -17l-19 -57q-19 12 -43 12q-37 0 -56.5 -24.5t-19.5 -70.5v-37h98v-66h-98v-417zM679 552q-20 0 -35 14.5t-15 35.5t15 36t35 15q21 0 36 -15t15 -36t-15 -35.5t-36 -14.5zM574 -196q-60 0 -106 36l27 57 q31 -31 69 -31q36 0 57 21.5t21 65.5v530h75v-530q0 -71 -37 -110t-106 -39zM171 0h-75v417h-80v66h80v37q0 74 37.5 115.5t102.5 41.5q62 0 102 -37l-31 -49q-27 24 -60 24q-37 0 -56.5 -24.5t-19.5 -70.5v-37h98v-66h-98v-417z" />
<glyph unicode="fj" horiz-adv-x="509" d="M171 0h-75v417h-80v66h80v37q0 74 38 115.5t102 41.5q46 0 73 -17l-19 -57q-19 12 -43 12q-37 0 -56.5 -24.5t-19.5 -70.5v-37h98v-66h-98v-417zM395 552q-20 0 -35 14.5t-15 35.5t15 36t35 15q21 0 36 -15t15 -36t-15 -35.5t-36 -14.5zM290 -196q-60 0 -106 36l27 57 q31 -31 69 -31q36 0 57 21.5t21 65.5v530h75v-530q0 -71 -37 -110t-106 -39z" />
<glyph unicode="ff" horiz-adv-x="567" d="M171 0h-75v417h-80v66h80v37q0 74 37.5 115.5t102.5 41.5q62 0 102 -37l-31 -49q-27 24 -60 24q-37 0 -56.5 -24.5t-19.5 -70.5v-37h98v-66h-98v-417zM454 0h-75v417h-80v66h80v37q0 74 37.5 115.5t102.5 41.5q62 0 102 -37l-31 -49q-27 24 -60 24q-37 0 -56.5 -24.5 t-19.5 -70.5v-37h98v-66h-98v-417z" />
<glyph unicode="fi" horiz-adv-x="509" d="M171 0h-75v417h-80v66h80v37q0 74 38 115.5t102 41.5q46 0 73 -17l-19 -57q-19 12 -43 12q-37 0 -56.5 -24.5t-19.5 -70.5v-37h98v-66h-98v-417zM395 552q-20 0 -35 14.5t-15 35.5t15 36t35 15q21 0 36 -15t15 -36t-15 -35.5t-36 -14.5zM433 0h-75v483h75v-483z" />
<glyph unicode="fl" horiz-adv-x="509" d="M171 0h-75v417h-80v66h80v37q0 74 38 115.5t102 41.5q46 0 73 -17l-19 -57q-19 12 -43 12q-37 0 -56.5 -24.5t-19.5 -70.5v-37h98v-66h-98v-417zM433 0h-75v667h75v-667z" />
<glyph unicode="ffi" horiz-adv-x="792" d="M454 0h-75v417h-80v66h80v37q0 74 38 115.5t102 41.5q46 0 73 -17l-19 -57q-19 12 -43 12q-37 0 -56.5 -24.5t-19.5 -70.5v-37h98v-66h-98v-417zM679 552q-20 0 -35 14.5t-15 35.5t15 36t35 15q21 0 36 -15t15 -36t-15 -35.5t-36 -14.5zM717 0h-75v483h75v-483zM171 0 h-75v417h-80v66h80v37q0 74 37.5 115.5t102.5 41.5q62 0 102 -37l-31 -49q-27 24 -60 24q-37 0 -56.5 -24.5t-19.5 -70.5v-37h98v-66h-98v-417z" />
<glyph unicode="ffl" horiz-adv-x="792" d="M454 0h-75v417h-80v66h80v37q0 74 38 115.5t102 41.5q46 0 73 -17l-19 -57q-19 12 -43 12q-37 0 -56.5 -24.5t-19.5 -70.5v-37h98v-66h-98v-417zM717 0h-75v667h75v-667zM171 0h-75v417h-80v66h80v37q0 74 37.5 115.5t102.5 41.5q62 0 102 -37l-31 -49q-27 24 -60 24 q-37 0 -56.5 -24.5t-19.5 -70.5v-37h98v-66h-98v-417z" />
<glyph unicode="fb" horiz-adv-x="858" d="M171 0h-75v417h-80v66h80v37q0 74 38 115.5t102 41.5q46 0 73 -17l-19 -57q-19 12 -43 12q-37 0 -56.5 -24.5t-19.5 -70.5v-37h98v-66h-98v-417zM433 131q20 -32 60.5 -54t83.5 -22q72 0 114 52t42 134t-42 134.5t-114 52.5q-43 0 -83.5 -22.5t-60.5 -55.5v-219zM433 0 h-75v667h75v-257q63 85 163 85q95 0 155 -69.5t60 -184.5q0 -116 -59.5 -184.5t-155.5 -68.5q-101 0 -163 84v-72z" />
<glyph unicode="fh" horiz-adv-x="835" d="M171 0h-75v417h-80v66h80v37q0 74 38 115.5t102 41.5q46 0 73 -17l-19 -57q-19 12 -43 12q-37 0 -56.5 -24.5t-19.5 -70.5v-37h98v-66h-98v-417zM760 0h-75v318q0 60 -28 85t-81 25q-41 0 -80.5 -22t-62.5 -53v-353h-75v667h75v-254q28 33 75 57.5t98 24.5 q154 0 154 -154v-341z" />
<glyph unicode="fk" horiz-adv-x="798" d="M171 0h-75v417h-80v66h80v37q0 74 38 115.5t102 41.5q46 0 73 -17l-19 -57q-19 12 -43 12q-37 0 -56.5 -24.5t-19.5 -70.5v-37h98v-66h-98v-417zM783 0h-96l-174 217l-80 -79v-138h-75v667h75v-441l254 257h95l-214 -219z" />
<glyph unicode="&#xd;" horiz-adv-x="0" />
<glyph unicode=" "  horiz-adv-x="258" />
<glyph unicode="&#x09;" horiz-adv-x="258" />
<glyph unicode="&#xa0;" horiz-adv-x="258" />
<glyph unicode="!" horiz-adv-x="230" d="M146 187h-62l-16 480h94zM115 -10q-22 0 -38.5 16.5t-16.5 38.5q0 23 16 39t39 16t39 -16t16 -39q0 -22 -16.5 -38.5t-38.5 -16.5z" />
<glyph unicode="&#x22;" horiz-adv-x="343" d="M118 412h-37q-27 205 -27 219q0 19 13 32.5t32 13.5t32.5 -13.5t13.5 -32.5zM263 412h-37q-27 205 -27 219q0 19 13.5 32.5t32.5 13.5t32 -13.5t13 -32.5z" />
<glyph unicode="#" horiz-adv-x="590" d="M300 0h-61l61 181h-111l-60 -181h-62l61 181h-106l17 53h107l66 199h-108l16 52h110l60 182h62l-60 -182h110l60 182h61l-61 -182h107l-15 -52h-109l-67 -199h111l-16 -53h-113zM317 234l66 199h-110l-66 -199h110z" />
<glyph unicode="$" horiz-adv-x="593" d="M271 -100v89q-144 8 -229 105l49 63q73 -82 180 -94v244q-38 10 -61.5 18t-54.5 23.5t-49 33.5t-30.5 46t-12.5 64q0 77 58 128t150 56v92h61v-93q121 -12 197 -91l-50 -61q-59 63 -147 76v-217q47 -13 78 -25.5t65.5 -35t51.5 -57t17 -80.5q0 -76 -52 -131.5t-160 -63.5 v-89h-61zM458 177q0 45 -32.5 70t-93.5 43v-227q65 7 95.5 40t30.5 74zM149 497q0 -38 31 -59.5t91 -39.5v204q-54 -4 -88 -32.5t-34 -72.5z" />
<glyph unicode="%" horiz-adv-x="731" d="M191 348q-71 0 -115.5 46.5t-44.5 116.5q0 71 45 118.5t115 47.5q71 0 116.5 -47.5t45.5 -118.5q0 -70 -45.5 -116.5t-116.5 -46.5zM182 0h-54l426 667h55zM539 -12q-71 0 -115.5 46.5t-44.5 116.5q0 71 45 118.5t115 47.5q71 0 116 -47.5t45 -118.5q0 -70 -45 -116.5 t-116 -46.5zM191 398q44 0 73 32.5t29 80.5q0 50 -28.5 82.5t-73.5 32.5q-44 0 -72 -32.5t-28 -82.5q0 -48 28 -80.5t72 -32.5zM539 38q44 0 73 32.5t29 80.5q0 50 -28.5 82.5t-73.5 32.5t-73 -32.5t-28 -82.5q0 -48 28.5 -80.5t72.5 -32.5z" />
<glyph unicode="&#x26;" horiz-adv-x="641" d="M613 0h-104q-30 26 -73 70q-82 -82 -192 -82q-91 0 -149.5 48.5t-58.5 137.5q0 71 39 116t108 82q-51 87 -51 150q0 66 48.5 110.5t119.5 44.5q67 0 109 -34.5t42 -96.5q0 -36 -13 -64.5t-42 -52t-50.5 -36.5t-64.5 -35q32 -44 77 -95q36 -43 79 -89q44 65 72 152l65 -28 q-49 -114 -91 -172q50 -52 130 -126zM251 50q74 0 140 66q-66 69 -92 101q-46 53 -84 106q-47 -29 -72.5 -62.5t-25.5 -81.5q0 -60 39.5 -94.5t94.5 -34.5zM210 521q0 -47 40 -115q65 32 98.5 62t33.5 75q0 36 -22 55.5t-57 19.5q-39 0 -66 -27.5t-27 -69.5z" />
<glyph unicode="'" horiz-adv-x="199" d="M118 412h-37q-27 205 -27 219q0 19 13 32.5t32 13.5t32.5 -13.5t13.5 -32.5z" />
<glyph unicode="(" horiz-adv-x="248" d="M230 -164l-45 -35q-141 193 -141 442q0 248 141 442l45 -34q-53 -105 -78.5 -198t-25.5 -210t25.5 -210.5t78.5 -196.5z" />
<glyph unicode=")" horiz-adv-x="248" d="M62 -199l-45 35q53 103 79 196.5t26 210.5q0 118 -26 211t-79 197l45 34q142 -193 142 -442q0 -250 -142 -442z" />
<glyph unicode="*" horiz-adv-x="340" d="M193 389h-46l5 115l-96 -63l-22 40l102 52l-102 52l22 39l96 -62l-5 115h46l-6 -115l96 62l23 -39l-102 -52l102 -52l-23 -40l-96 63z" />
<glyph unicode="+" horiz-adv-x="499" d="M470 311h-192v-213h-57v213h-192v52h192v207h57v-207h192v-52z" />
<glyph unicode="," horiz-adv-x="230" d="M176 24q0 -44 -23 -84.5t-59 -66.5l-37 31q25 16 43.5 42.5t21.5 50.5q-4 -2 -14 -2q-21 0 -34.5 14.5t-13.5 36.5t15.5 38t37.5 16q26 0 44.5 -20.5t18.5 -55.5z" />
<glyph unicode="-" horiz-adv-x="300" d="M270 209h-240v66h240v-66z" />
<glyph unicode="." horiz-adv-x="230" d="M115 -10q-23 0 -39 16t-16 39t16 39t39 16t39 -16t16 -39t-16 -39t-39 -16z" />
<glyph unicode="/" horiz-adv-x="296" d="M59 -20h-59l237 707h59z" />
<glyph unicode="0" horiz-adv-x="612" d="M306 -12q-66 0 -116.5 30.5t-80 81.5t-44 110t-14.5 123t14.5 123t44 109.5t80 81t116.5 30.5q65 0 116 -30.5t80.5 -81t44 -109.5t14.5 -123t-14.5 -123t-44 -110t-80.5 -81.5t-116 -30.5zM306 62q60 0 100 41.5t55 99.5t15 130t-15 130t-55 99t-100 41t-100 -41 t-55 -99t-15 -130t15 -130t55 -99.5t100 -41.5z" />
<glyph unicode="1" horiz-adv-x="339" d="M261 0h-83v557l-107 -113l-50 51l167 172h73v-667z" />
<glyph unicode="2" horiz-adv-x="588" d="M512 0h-458v66q104 82 161.5 130.5t111 103t75.5 97t22 84.5q0 60 -41 91t-98 31q-115 0 -181 -84l-51 53q38 50 99.5 77.5t132.5 27.5q91 0 157.5 -51t66.5 -145q0 -93 -80 -185.5t-244 -221.5h327v-74z" />
<glyph unicode="3" horiz-adv-x="557" d="M266 -12q-80 0 -142 31t-95 79l49 52q30 -40 79 -64t107 -24q73 0 114.5 33.5t41.5 91.5q0 60 -44.5 89t-121.5 29q-59 0 -69 -1v76q11 -1 69 -1q68 0 111.5 27.5t43.5 82.5q0 53 -42.5 83.5t-106.5 30.5q-101 0 -176 -81l-46 52q85 103 228 103q99 0 162.5 -47.5 t63.5 -130.5q0 -66 -44 -105.5t-100 -49.5q55 -5 104.5 -48t49.5 -116q0 -85 -64 -138.5t-172 -53.5z" />
<glyph unicode="4" horiz-adv-x="558" d="M432 0h-83v169h-317v69l286 429h114v-425h94v-73h-94v-169zM349 242v348l-234 -348h234z" />
<glyph unicode="5" horiz-adv-x="590" d="M301 -12q-154 0 -235 107l51 55q69 -88 184 -88q68 0 111 41t43 102q0 65 -42.5 104.5t-110.5 39.5q-90 0 -154 -63l-61 21v360h408v-74h-325v-232q60 60 156 60q88 0 150 -57.5t62 -155.5q0 -100 -67 -160t-170 -60z" />
<glyph unicode="6" horiz-adv-x="591" d="M308 -12q-67 0 -118 28t-80.5 76.5t-44 109t-14.5 130.5q0 94 28 170t90.5 125.5t152.5 49.5q115 0 185 -80l-42 -62q-58 68 -143 68q-62 0 -105.5 -39t-63 -96.5t-19.5 -126.5q0 -17 1 -26q25 40 77.5 72t111.5 32q95 0 156.5 -55.5t61.5 -157.5q0 -91 -64 -154.5 t-170 -63.5zM305 62q72 0 112.5 43.5t40.5 97.5q0 70 -43 107t-111 37q-49 0 -94 -27.5t-73 -72.5q7 -74 48 -129.5t120 -55.5z" />
<glyph unicode="7" horiz-adv-x="515" d="M213 0h-92l269 593h-359v74h455v-57z" />
<glyph unicode="8" horiz-adv-x="581" d="M291 -12q-102 0 -170.5 49t-68.5 132q0 63 45.5 109t113.5 66q-64 18 -106 58.5t-42 101.5q0 84 68 128.5t160 44.5t160.5 -44.5t68.5 -128.5q0 -61 -42 -101.5t-107 -58.5q68 -20 113.5 -66t45.5 -109q0 -82 -68.5 -131.5t-170.5 -49.5zM291 378q20 3 40.5 10t46.5 19.5 t42 35t16 50.5q0 50 -41.5 80t-103.5 30q-63 0 -104 -30t-41 -80q0 -28 16 -50.5t42 -35t46.5 -19t40.5 -10.5zM291 62q64 0 109.5 32t45.5 84q0 40 -31.5 70.5t-64 43t-59.5 15.5q-27 -3 -59.5 -15.5t-64.5 -43t-32 -70.5q0 -52 45.5 -84t110.5 -32z" />
<glyph unicode="9" horiz-adv-x="591" d="M269 -11q-115 0 -185 80l42 62q58 -68 143 -68q64 0 108 40t62 97t18 124q0 18 -1 27q-25 -40 -77 -72t-111 -32q-95 0 -157 55.5t-62 157.5q0 90 64 154t169 64q68 0 119 -28t80.5 -77t44 -109t14.5 -131q0 -94 -28 -169.5t-90.5 -125t-152.5 -49.5zM287 319 q49 0 94.5 27t71.5 72q-6 74 -47 130t-120 56q-71 0 -112 -44t-41 -97q0 -70 43 -107t111 -37z" />
<glyph unicode=":" horiz-adv-x="230" d="M115 380q-23 0 -39 16t-16 39t16 39t39 16t39 -16t16 -39t-16 -39t-39 -16zM115 -10q-23 0 -39 16t-16 39t16 39t39 16t39 -16t16 -39t-16 -39t-39 -16z" />
<glyph unicode=";" horiz-adv-x="230" d="M115 380q-22 0 -38.5 16.5t-16.5 38.5q0 23 16 39t39 16t39 -16t16 -39q0 -22 -16.5 -38.5t-38.5 -16.5zM176 26q0 -45 -23 -85.5t-59 -65.5l-37 30q24 16 43 43t22 51q-6 -3 -14 -3q-21 0 -34.5 14.5t-13.5 36.5q0 23 15.5 39t37.5 16q26 0 44.5 -20.5t18.5 -55.5z" />
<glyph unicode="&#x3c;" horiz-adv-x="499" d="M470 90l-441 218v53l441 219v-63l-377 -183l377 -182v-62z" />
<glyph unicode="=" horiz-adv-x="499" d="M470 404h-441v53h441v-53zM470 211h-441v52h441v-52z" />
<glyph unicode="&#x3e;" horiz-adv-x="499" d="M470 308l-441 -218v62l376 182l-376 183v63l441 -219v-53z" />
<glyph unicode="?" horiz-adv-x="462" d="M203 185q-39 33 -39 81q0 30 13.5 55t33.5 41t43.5 33.5t43.5 32.5t33.5 36t13.5 46q0 40 -30.5 66.5t-87.5 26.5q-97 0 -159 -82l-50 54q79 102 217 102q89 0 142.5 -44.5t53.5 -110.5q0 -51 -30.5 -90.5t-66.5 -60.5t-66.5 -50t-30.5 -61q0 -28 27 -49zM224 -10 q-22 0 -38.5 16t-16.5 39t16.5 39t38.5 16t38.5 -16t16.5 -39t-16.5 -39t-38.5 -16z" />
<glyph unicode="@" horiz-adv-x="783" d="M352 -70q-136 0 -226.5 90.5t-90.5 223.5q0 160 119.5 277t277.5 117q139 0 227 -91.5t88 -225.5q0 -111 -52 -173.5t-121 -62.5q-40 0 -64.5 23.5t-26.5 57.5l-1 6q-27 -38 -69.5 -62.5t-88.5 -24.5q-69 0 -111 45t-42 118q0 102 72 176.5t163 74.5q46 0 79.5 -22 t48.5 -56l13 62h68l-57 -271q-2 -12 -2 -21q0 -25 13.5 -38.5t33.5 -13.5q38 0 73 45t35 137q0 124 -78.5 203.5t-204.5 79.5q-144 0 -251.5 -108.5t-107.5 -249.5q0 -121 81.5 -202t205.5 -81q97 0 186 56l18 -26q-98 -63 -208 -63zM344 141q87 0 149 90l29 138 q-10 29 -36.5 51.5t-66.5 22.5q-73 0 -125 -58.5t-52 -132.5q0 -49 27.5 -80t74.5 -31z" />
<glyph unicode="A" horiz-adv-x="658" d="M649 0h-95l-59 148h-332l-59 -148h-95l268 667h103zM470 222l-141 359l-142 -359h283z" />
<glyph unicode="B" horiz-adv-x="629" d="M382 0h-304v667h297q86 0 136.5 -47t50.5 -123q0 -60 -34 -101.5t-83 -51.5q53 -8 91.5 -56t38.5 -108q0 -81 -51.5 -130.5t-141.5 -49.5zM361 378q55 0 85 30t30 77t-30.5 77.5t-84.5 30.5h-200v-215h200zM365 74q58 0 91 31t33 84q0 49 -32.5 82t-91.5 33h-204v-230 h204z" />
<glyph unicode="C" horiz-adv-x="676" d="M394 -12q-146 0 -244.5 96.5t-98.5 248.5t98.5 248.5t244.5 96.5q160 0 253 -132l-70 -39q-29 43 -78 70t-105 27q-110 0 -183.5 -76.5t-73.5 -194.5t73.5 -194.5t183.5 -76.5q56 0 105 26.5t78 70.5l71 -39q-97 -132 -254 -132z" />
<glyph unicode="D" horiz-adv-x="700" d="M306 0h-228v667h228q153 0 247.5 -95t94.5 -239q0 -145 -94.5 -239t-247.5 -94zM306 74q118 0 187 74t69 185q0 112 -68 186t-188 74h-145v-519h145z" />
<glyph unicode="E" horiz-adv-x="569" d="M515 0h-437v667h437v-74h-354v-215h347v-74h-347v-230h354v-74z" />
<glyph unicode="F" horiz-adv-x="550" d="M161 0h-83v667h437v-74h-354v-215h347v-74h-347v-304z" />
<glyph unicode="G" horiz-adv-x="713" d="M394 -13q-145 0 -244 96.5t-99 249.5t99 249t244 96q158 0 259 -125l-66 -41q-32 42 -83.5 67t-109.5 25q-110 0 -183.5 -76.5t-73.5 -194.5t73.5 -195t183.5 -77q55 0 102.5 21.5t76.5 50.5v136h-229v74h312v-241q-103 -115 -262 -115z" />
<glyph unicode="H" horiz-adv-x="712" d="M634 0h-83v306h-390v-306h-83v667h83v-287h390v287h83v-667z" />
<glyph unicode="I" horiz-adv-x="239" d="M161 0h-83v667h83v-667z" />
<glyph unicode="J" horiz-adv-x="475" d="M185 -12q-108 0 -174 77l43 63q55 -66 126 -66q61 0 97.5 38.5t36.5 101.5v465h83v-466q0 -104 -59 -158.5t-153 -54.5z" />
<glyph unicode="K" horiz-adv-x="601" d="M584 0h-103l-253 300l-67 -76v-224h-83v667h83v-345l295 345h104l-278 -317z" />
<glyph unicode="L" horiz-adv-x="510" d="M471 0h-393v667h83v-593h310v-74z" />
<glyph unicode="M" horiz-adv-x="809" d="M731 0h-83v549l-227 -549h-34l-226 549v-549h-83v667h119l207 -502l208 502h119v-667z" />
<glyph unicode="N" horiz-adv-x="708" d="M630 0h-80l-389 532v-532h-83v667h85l384 -521v521h83v-667z" />
<glyph unicode="O" horiz-adv-x="765" d="M382 -12q-147 0 -239 98t-92 247t92 247t239 98q146 0 238.5 -98t92.5 -247t-92.5 -247t-238.5 -98zM382 62q110 0 177.5 76.5t67.5 194.5q0 119 -67.5 195t-177.5 76q-111 0 -178 -76t-67 -195q0 -118 67 -194.5t178 -76.5z" />
<glyph unicode="P" horiz-adv-x="587" d="M161 0h-83v667h268q97 0 153 -58t56 -143t-56.5 -143t-152.5 -58h-185v-265zM336 339q59 0 96 35.5t37 91.5t-37 91.5t-96 35.5h-175v-254h175z" />
<glyph unicode="Q" horiz-adv-x="765" d="M382 -12q-147 0 -239 98t-92 247t92 247t239 98q146 0 238.5 -98t92.5 -247t-92 -246l64 -68l-58 -50l-65 69q-78 -50 -180 -50zM382 62q71 0 127 34l-95 103l58 49l94 -102q61 75 61 187q0 119 -67.5 195t-177.5 76q-111 0 -178 -76t-67 -195q0 -118 67 -194.5 t178 -76.5z" />
<glyph unicode="R" horiz-adv-x="608" d="M562 0h-98l-170 265h-133v-265h-83v667h268q93 0 151 -55t58 -146q0 -86 -50 -137t-123 -57zM336 338q59 0 96 36t37 92t-37 91.5t-96 35.5h-175v-255h175z" />
<glyph unicode="S" horiz-adv-x="586" d="M294 -12q-162 0 -256 106l49 63q85 -95 210 -95q81 0 119 34.5t38 80.5q0 35 -22 59t-56.5 37.5t-77 24.5t-84.5 24.5t-76.5 32.5t-56.5 54t-22 83q0 82 65 133.5t164 51.5q149 0 237 -93l-50 -61q-73 80 -193 80q-60 0 -98.5 -29.5t-38.5 -76.5q0 -35 29.5 -58t73 -34 t95 -27.5t95 -35t73 -59.5t29.5 -99q0 -82 -60.5 -139t-185.5 -57z" />
<glyph unicode="T" horiz-adv-x="570" d="M326 0h-83v593h-211v74h506v-74h-212v-593z" />
<glyph unicode="U" horiz-adv-x="700" d="M350 -12q-133 0 -202.5 72.5t-69.5 198.5v408h83v-406q0 -93 49 -146t140 -53t140 53t49 146v406h83v-407q0 -127 -69.5 -199.5t-202.5 -72.5z" />
<glyph unicode="V" horiz-adv-x="658" d="M380 0h-103l-268 667h95l225 -576l225 576h95z" />
<glyph unicode="W" horiz-adv-x="883" d="M678 0h-90l-147 538l-147 -538h-90l-190 667h92l148 -556l153 556h69l153 -556l147 556h92z" />
<glyph unicode="X" horiz-adv-x="652" d="M639 0h-100l-213 284l-213 -284h-101l260 342l-245 325h101l198 -267l197 267h101l-244 -324z" />
<glyph unicode="Y" horiz-adv-x="626" d="M355 0h-83v282l-263 385h97l207 -310l207 310h97l-262 -385v-282z" />
<glyph unicode="Z" horiz-adv-x="585" d="M536 0h-488v69l375 524h-375v74h481v-69l-375 -524h382v-74z" />
<glyph unicode="[" horiz-adv-x="243" d="M226 -190h-186v868h186v-55h-128v-758h128v-55z" />
<glyph unicode="\" horiz-adv-x="296" d="M237 -20l-237 707h59l237 -707h-59z" />
<glyph unicode="]" horiz-adv-x="243" d="M203 -190h-186v55h128v758h-128v55h186v-868z" />
<glyph unicode="^" horiz-adv-x="432" d="M413 333h-62l-135 279l-135 -279h-62l169 334h57z" />
<glyph unicode="_" horiz-adv-x="564" d="M567 -95h-570v55h570v-55z" />
<glyph unicode="`" horiz-adv-x="226" d="M226 556h-57l-169 144h78z" />
<glyph unicode="a" horiz-adv-x="527" d="M452 0h-75v55q-61 -67 -160 -67q-67 0 -118 43t-51 117q0 76 50.5 117.5t118.5 41.5q103 0 160 -66v87q0 48 -34 75t-88 27q-85 0 -148 -67l-35 52q77 80 193 80q83 0 135 -40t52 -123v-332zM244 42q90 0 133 60v91q-43 60 -133 60q-52 0 -85.5 -29.5t-33.5 -76.5 q0 -46 33.5 -75.5t85.5 -29.5z" />
<glyph unicode="b" horiz-adv-x="575" d="M150 131q20 -32 60.5 -54t83.5 -22q72 0 114 52t42 134t-42 134.5t-114 52.5q-43 0 -83.5 -22.5t-60.5 -55.5v-219zM150 0h-75v667h75v-257q63 85 163 85q95 0 155 -69.5t60 -184.5q0 -116 -59.5 -184.5t-155.5 -68.5q-101 0 -163 84v-72z" />
<glyph unicode="c" horiz-adv-x="495" d="M288 -12q-107 0 -174 72.5t-67 181.5t67 181t174 72q112 0 177 -84l-50 -46q-46 63 -123 63q-76 0 -121.5 -52t-45.5 -134t45.5 -134.5t121.5 -52.5t123 63l50 -46q-65 -84 -177 -84z" />
<glyph unicode="d" horiz-adv-x="575" d="M500 0h-75v72q-62 -84 -163 -84q-96 0 -155.5 68.5t-59.5 184.5q0 115 59.5 184.5t155.5 69.5q100 0 163 -85v257h75v-667zM280 55q44 0 84 22t61 54v219q-21 33 -61.5 55.5t-83.5 22.5q-71 0 -113 -52.5t-42 -134.5t42 -134t113 -52z" />
<glyph unicode="e" horiz-adv-x="563" d="M293 -12q-108 0 -177 70.5t-69 183.5q0 106 68 179.5t170 73.5q107 0 169.5 -73.5t62.5 -185.5v-19h-391q5 -71 52 -119t122 -48q90 0 149 61l36 -49q-74 -74 -192 -74zM443 272q-1 62 -42 111.5t-117 49.5q-72 0 -113.5 -49t-44.5 -112h317z" />
<glyph unicode="f" horiz-adv-x="283" d="M171 0h-75v417h-80v66h80v37q0 74 37.5 115.5t102.5 41.5q62 0 102 -37l-31 -49q-27 24 -60 24q-37 0 -56.5 -24.5t-19.5 -70.5v-37h98v-66h-98v-417z" />
<glyph unicode="g" horiz-adv-x="574" d="M269 -196q-64 0 -109 15.5t-86 56.5l38 56q55 -66 157 -66q67 0 111 35.5t44 109.5v69q-27 -38 -70 -62t-92 -24q-96 0 -155.5 67.5t-59.5 182.5t59.5 183t155.5 68q99 0 162 -85v73h75v-469q0 -111 -65 -160.5t-165 -49.5zM280 60q43 0 83.5 23t60.5 56v211 q-20 33 -60 55.5t-84 22.5q-72 0 -113.5 -51t-41.5 -133q0 -81 42 -132.5t113 -51.5z" />
<glyph unicode="h" horiz-adv-x="552" d="M477 0h-75v318q0 60 -28 85t-81 25q-41 0 -80.5 -22t-62.5 -53v-353h-75v667h75v-254q28 33 75 57.5t98 24.5q154 0 154 -154v-341z" />
<glyph unicode="i" horiz-adv-x="225" d="M112 552q-20 0 -35 14.5t-15 35.5t15 36t35 15q21 0 36 -15t15 -36t-15 -35.5t-36 -14.5zM150 0h-75v483h75v-483z" />
<glyph unicode="j" horiz-adv-x="225" d="M112 552q-20 0 -35 14.5t-15 35.5t15 36t35 15q21 0 36 -15t15 -36t-15 -35.5t-36 -14.5zM7 -196q-59 0 -106 36l27 57q31 -31 69 -31q36 0 57 21.5t21 65.5v530h75v-530q0 -71 -37 -110t-106 -39z" />
<glyph unicode="k" horiz-adv-x="514" d="M500 0h-96l-174 217l-80 -79v-138h-75v667h75v-441l254 257h95l-214 -219z" />
<glyph unicode="l" horiz-adv-x="225" d="M150 0h-75v667h75v-667z" />
<glyph unicode="m" horiz-adv-x="808" d="M733 0h-75v328q0 100 -89 100q-36 0 -72 -22t-56 -52v-354h-75v328q0 100 -89 100q-35 0 -70.5 -22t-56.5 -53v-353h-75v483h75v-70q18 28 63 55t93 27q53 0 86 -25t44 -65q22 36 67 63t95 27q135 0 135 -146v-349z" />
<glyph unicode="n" horiz-adv-x="551" d="M476 0h-75v316q0 61 -28 86.5t-80 25.5q-42 0 -81.5 -22t-61.5 -53v-353h-75v483h75v-70q28 33 75 57.5t97 24.5q154 0 154 -156v-339z" />
<glyph unicode="o" d="M286 -12q-108 0 -173.5 73t-65.5 181t65.5 180.5t173.5 72.5t173.5 -72.5t65.5 -180.5t-65.5 -181t-173.5 -73zM286 55q74 0 117 54.5t43 132.5t-43 132t-117 54t-117.5 -54.5t-43.5 -131.5q0 -78 43.5 -132.5t117.5 -54.5z" />
<glyph unicode="p" d="M313 -12q-102 0 -163 85v-257h-75v667h75v-72q27 38 70 61t93 23q96 0 155.5 -68.5t59.5 -184.5t-59.5 -185t-155.5 -69zM294 55q71 0 113 52.5t42 134.5t-42 134t-113 52q-43 0 -83.5 -22.5t-60.5 -54.5v-218q20 -33 60.5 -55.5t83.5 -22.5z" />
<glyph unicode="q" d="M277 55q44 0 84.5 22.5t59.5 55.5v218q-19 32 -59.5 54.5t-84.5 22.5q-71 0 -112.5 -52t-41.5 -134t41.5 -134.5t112.5 -52.5zM259 -12q-96 0 -155.5 69t-59.5 185t59.5 184.5t155.5 68.5q50 0 93 -23t69 -61v72h75v-667h-75v257q-61 -85 -162 -85z" />
<glyph unicode="r" horiz-adv-x="330" d="M150 0h-75v483h75v-78q67 88 161 88v-77q-14 3 -30 3q-34 0 -74 -24t-57 -53v-342z" />
<glyph unicode="s" horiz-adv-x="465" d="M228 -12q-123 0 -195 76l39 54q25 -29 68.5 -49t90.5 -20q54 0 84 23t30 60q0 32 -31 50.5t-74.5 28t-87.5 22t-75 43t-31 80.5q0 59 48.5 99t131.5 40q109 0 179 -70l-35 -52q-51 61 -144 61q-49 0 -78 -21.5t-29 -54.5q0 -29 31 -45.5t74.5 -26t87.5 -22.5t75 -45.5 t31 -84.5q0 -64 -50 -105t-140 -41z" />
<glyph unicode="t" horiz-adv-x="294" d="M197 -12q-53 0 -80 29t-27 84v316h-80v66h80v132h75v-132h98v-66h-98v-300q0 -28 12.5 -45t36.5 -17q33 0 51 20l22 -56q-33 -31 -90 -31z" />
<glyph unicode="u" horiz-adv-x="551" d="M476 0h-75v68q-30 -34 -75.5 -57t-96.5 -23q-154 0 -154 154v341h75v-318q0 -60 27.5 -85t80.5 -25q42 0 81.5 21t61.5 52v355h75v-483z" />
<glyph unicode="v" horiz-adv-x="490" d="M286 0h-82l-201 483h81l161 -396l160 396h82z" />
<glyph unicode="w" horiz-adv-x="734" d="M568 0h-75l-126 388l-126 -388h-75l-154 483h78l118 -385l127 385h64l127 -385l118 385h78z" />
<glyph unicode="x" horiz-adv-x="486" d="M475 0h-87l-145 198l-145 -198h-86l185 248l-175 235h87l134 -184l134 184h87l-175 -235z" />
<glyph unicode="y" horiz-adv-x="490" d="M48 -189l12 68q18 -8 41 -8q26 0 43 11t29 40l32 73l-202 488h81l161 -396l160 396h82l-242 -581q-40 -96 -142 -98q-30 0 -55 7z" />
<glyph unicode="z" horiz-adv-x="472" d="M420 0h-368v58l266 359h-266v66h364v-57l-268 -361h272v-65z" />
<glyph unicode="{" horiz-adv-x="260" d="M243 -190h-61q-50 0 -87.5 37.5t-37.5 96.5v206q0 30 -13.5 49.5t-38.5 19.5v50q25 0 38.5 19.5t13.5 49.5v205q0 60 37.5 97.5t87.5 37.5h61v-55h-61q-27 0 -46.5 -22.5t-19.5 -57.5v-211q0 -68 -46 -88q46 -20 46 -88v-211q0 -34 19.5 -57t46.5 -23h61v-55z" />
<glyph unicode="|" horiz-adv-x="211" d="M133 -20h-55v707h55v-707z" />
<glyph unicode="}" horiz-adv-x="260" d="M17 -190v55h61q27 0 46.5 23t19.5 57v211q0 68 46 88q-46 20 -46 88v211q0 35 -19.5 57.5t-46.5 22.5h-61v55h61q50 0 87.5 -37.5t37.5 -97.5v-205q0 -30 13.5 -49.5t38.5 -19.5v-50q-25 0 -38.5 -19.5t-13.5 -49.5v-206q0 -59 -37.5 -96.5t-87.5 -37.5h-61z" />
<glyph unicode="~" horiz-adv-x="503" d="M419 667l56 -7q-5 -51 -12.5 -89t-22.5 -74t-41 -55t-62 -19q-35 0 -58 19.5t-34.5 47.5t-21 56t-23.5 47.5t-35 19.5q-63 0 -82 -191l-56 7q5 50 13 88.5t23 74.5t41 55t61 19t58.5 -19.5t35 -48t20.5 -56.5t23 -47.5t35 -19.5q65 0 82 192z" />
<glyph unicode="&#xa1;" horiz-adv-x="230" d="M69 -184l15 480h62l16 -480h-93zM60 438q0 22 16.5 38.5t38.5 16.5t38.5 -16.5t16.5 -38.5t-16 -38.5t-39 -16.5t-39 16.5t-16 38.5z" />
<glyph unicode="&#xa2;" horiz-adv-x="495" d="M252 -100v91q-92 12 -148.5 81.5t-56.5 169.5q0 98 56.5 167.5t148.5 82.5v73h59v-71q94 -8 154 -83l-50 -46q-40 54 -104 62v-371q63 6 104 62l50 -46q-58 -75 -154 -83v-89h-59zM125 242q0 -70 34 -120t93 -63v364q-59 -13 -93 -62.5t-34 -118.5z" />
<glyph unicode="&#xa3;" horiz-adv-x="518" d="M19 268v54h106q-28 32 -38.5 45.5t-24.5 46t-14 66.5q0 82 66 139.5t158 57.5q68 0 121 -29.5t81 -82.5l-67 -40q-14 34 -48.5 58t-78.5 24q-59 0 -101 -35t-42 -93q0 -26 9 -50t17.5 -37t28.5 -37.5t26 -32.5h150v-54h-122q7 -23 7 -43q0 -78 -76 -132q25 9 52 9 q33 0 76.5 -20.5t71.5 -20.5q31 0 57 12.5t38 27.5l36 -67q-49 -47 -135 -47q-47 0 -95 23t-84 23q-42 0 -118 -40l-30 62q64 29 98.5 68.5t34.5 84.5q0 30 -15 60h-145z" />
<glyph unicode="&#xa4;" horiz-adv-x="598" d="M299 93q-86 0 -149 47l-75 -76l-47 45l77 77q-45 64 -45 147q0 86 46 147l-79 79l47 46l78 -79q62 46 147 46q86 0 146 -46l78 78l46 -46l-78 -78q47 -63 47 -147q0 -83 -46 -148l77 -76l-46 -45l-77 75q-62 -46 -147 -46zM299 161q75 0 118.5 50.5t43.5 121.5 t-43.5 120.5t-118.5 49.5t-118.5 -50t-43.5 -120q0 -71 43.5 -121.5t118.5 -50.5z" />
<glyph unicode="&#xa5;" horiz-adv-x="626" d="M355 0h-83v122h-250v53h250v107h-250v52h214l-227 333h97l207 -310l207 310h97l-227 -333h215v-52h-250v-107h250v-53h-250v-122z" />
<glyph unicode="&#xa6;" horiz-adv-x="211" d="M133 -20h-55v316h55v-316zM133 371h-55v316h55v-316z" />
<glyph unicode="&#xa7;" horiz-adv-x="468" d="M418 315q0 -87 -92 -128q92 -35 92 -121q0 -69 -52 -108t-138 -39q-114 0 -194 78l38 49q60 -72 156 -72q53 0 85 23t32 64q0 34 -31 53.5t-74.5 30t-87.5 23t-75 43t-31 79.5q0 50 32.5 82.5t82.5 45.5q-115 36 -115 123q0 58 48.5 97t131.5 39q117 0 178 -71l-34 -45 q-50 60 -142 60q-48 0 -78.5 -22t-30.5 -58q0 -31 31 -48.5t74.5 -26.5t87.5 -22t75 -45t31 -84zM344 305q0 39 -30.5 59t-82.5 33q-62 -16 -87 -40t-25 -59q0 -26 22 -44.5t41.5 -25t67.5 -18.5q7 -2 11 -3q83 36 83 98z" />
<glyph unicode="&#xa8;" horiz-adv-x="272" d="M286 604q0 -19 -14 -33t-33 -14t-33 14t-14 33t14 32.5t33 13.5t33 -13.5t14 -32.5zM79 604q0 -19 -13.5 -33t-32.5 -14t-33 13.5t-14 33.5q0 19 14 32.5t33 13.5t32.5 -13.5t13.5 -32.5z" />
<glyph unicode="&#xa9;" horiz-adv-x="778" d="M734 334q0 -143 -101 -244t-244 -101t-244 101.5t-101 243.5q0 143 101 244t244 101t244 -101t101 -244zM703 334q0 130 -92 222t-222 92t-222 -92t-92 -222t92 -222t222 -92t222 92t92 222zM512 212l26 -25q-57 -66 -147 -66q-87 0 -147.5 61.5t-60.5 152.5t60.5 152 t147.5 61q90 0 146 -66l-25 -24q-19 26 -52.5 41.5t-68.5 15.5q-70 0 -120.5 -50.5t-50.5 -129.5q0 -77 51 -129t120 -52q36 0 68.5 16t52.5 42z" />
<glyph unicode="&#xaa;" horiz-adv-x="378" d="M317 326h-57v35q-40 -43 -107 -43q-44 0 -78 28t-34 76q0 49 33.5 76t78.5 27q67 0 107 -42v55q0 30 -23 47.5t-56 17.5q-59 0 -99 -46l-25 37q52 54 131 54q57 0 93 -27t36 -84v-211zM175 356q56 0 85 38v56q-29 38 -85 38q-33 0 -54.5 -18.5t-21.5 -47.5 q0 -30 21.5 -48t54.5 -18z" />
<glyph unicode="&#xab;" horiz-adv-x="439" d="M409 63h-75l-160 180l160 177h75l-160 -177zM265 63h-75l-160 180l160 177h75l-160 -177z" />
<glyph unicode="&#xac;" horiz-adv-x="504" d="M470 457v-246h-55v193h-386v53h441z" />
<glyph unicode="&#xad;" horiz-adv-x="300" d="M270 209h-240v66h240v-66z" />
<glyph unicode="&#xae;" horiz-adv-x="494" d="M459 465q0 -88 -62 -150t-150 -62t-150 62t-62 150t62 150t150 62q89 0 150.5 -61.5t61.5 -150.5zM430 465q0 76 -53.5 129.5t-129.5 53.5q-77 0 -130.5 -53.5t-53.5 -129.5t54 -130t130 -54t129.5 54t53.5 130zM345 343h-40l-63 96h-44v-96h-32v243h99q32 0 54.5 -20.5 t22.5 -53.5q0 -35 -22.5 -53.5t-39.5 -18.5zM309 512q0 19 -13.5 32.5t-30.5 13.5h-67v-90h67q16 0 30 13t14 31z" />
<glyph unicode="&#xaf;" horiz-adv-x="363" d="M363 572h-363v48h363v-48z" />
<glyph unicode="&#xb0;" horiz-adv-x="290" d="M267 555q0 -51 -36 -86.5t-87 -35.5q-50 0 -85.5 35.5t-35.5 86.5q0 50 35.5 86t85.5 36q51 0 87 -36t36 -86zM219 555q0 30 -22 52t-53 22q-30 0 -51 -22t-21 -52q0 -31 21 -52.5t51 -21.5q31 0 53 21.5t22 52.5z" />
<glyph unicode="&#xb1;" horiz-adv-x="499" d="M470 324h-192v-214h-57v214h-192v52h192v207h57v-207h192v-52zM470 0h-441v52h441v-52z" />
<glyph unicode="&#xb2;" horiz-adv-x="388" d="M341 421h-291v45q124 88 176.5 140.5t52.5 98.5q0 36 -25 54.5t-60 18.5q-73 0 -112 -52l-33 38q50 63 147 63q60 0 101.5 -30.5t41.5 -87.5q0 -56 -50 -111.5t-151 -127.5h203v-49z" />
<glyph unicode="&#xb3;" horiz-adv-x="388" d="M343 530q0 -52 -41 -84t-110 -32q-103 0 -150 65l32 38q44 -54 116 -54q43 0 68 19t25 51q0 69 -104 69q-34 0 -40 -1v50q7 -1 39 -1q98 0 98 64q0 30 -25.5 47t-63.5 17q-64 0 -109 -49l-31 36q55 62 145 62q64 0 104 -29t40 -78q0 -40 -27 -63.5t-62 -29.5 q34 -3 65 -28t31 -69z" />
<glyph unicode="&#xb4;" horiz-adv-x="226" d="M226 700l-169 -144h-57l148 144h78z" />
<glyph unicode="&#xb5;" horiz-adv-x="565" d="M150 36v-220h-75v667h75v-318q0 -112 110 -112q41 0 80 22t61 53v355h75v-370q0 -58 47 -58q11 0 19 2l6 -65q-22 -4 -40 -4q-88 0 -104 86q-27 -37 -68 -61.5t-85 -24.5q-75 0 -101 48z" />
<glyph unicode="&#xb6;" horiz-adv-x="449" d="M378 -100h-45v722h-89v-722h-45v423q-71 0 -121.5 50.5t-50.5 121.5t50.5 121.5t121.5 50.5h179v-767z" />
<glyph unicode="&#xb7;" horiz-adv-x="230" d="M170 244q0 -22 -16.5 -38t-38.5 -16t-38.5 16t-16.5 38t16 38.5t39 16.5t39 -16.5t16 -38.5z" />
<glyph unicode="&#xb8;" horiz-adv-x="205" d="M101 -191q-63 0 -101 30l19 38q35 -29 80 -29q25 0 43 11.5t18 30.5q0 35 -37 35q-23 0 -38 -17l-33 19l31 84h45l-26 -66q16 11 37 11q29 0 47.5 -18.5t18.5 -48.5q0 -36 -30 -58t-74 -22z" />
<glyph unicode="&#xb9;" horiz-adv-x="235" d="M175 421h-60v322l-66 -69l-35 37l108 110h53v-400z" />
<glyph unicode="&#xba;" horiz-adv-x="405" d="M202 318q-73 0 -117.5 47.5t-44.5 117.5t44.5 117.5t117.5 47.5q74 0 118.5 -47.5t44.5 -117.5t-44.5 -117.5t-118.5 -47.5zM202 366q48 0 76 33t28 84q0 50 -28 82.5t-76 32.5q-47 0 -74.5 -32.5t-27.5 -82.5q0 -51 27.5 -84t74.5 -33z" />
<glyph unicode="&#xbb;" horiz-adv-x="439" d="M265 243l-160 -180h-75l160 180l-160 177h75zM409 243l-160 -180h-75l160 180l-160 177h75z" />
<glyph unicode="&#xbc;" horiz-adv-x="770" d="M175 267h-60v322l-66 -69l-35 37l108 110h53v-400zM733 100h-58v-100h-59v100h-196v44l172 256h83v-251h58v-49zM616 149v198l-136 -198h136zM590 667l-427 -667h-55l426 667h56z" />
<glyph unicode="&#xbd;" horiz-adv-x="807" d="M175 267h-60v322l-66 -69l-35 37l108 110h53v-400zM759 0h-291v45q124 88 176.5 140.5t52.5 98.5q0 36 -25 54.5t-60 18.5q-73 0 -112 -52l-33 38q49 63 147 63q60 0 101.5 -30.5t41.5 -87.5q0 -56 -50 -111.5t-151 -127.5h203v-49zM590 667l-427 -667h-55l426 667h56z " />
<glyph unicode="&#xbe;" horiz-adv-x="878" d="M842 100h-58v-100h-59v100h-196v44l172 256h83v-251h58v-49zM725 149v198l-136 -198h136zM698 667l-427 -667h-55l426 667h56zM343 376q0 -52 -41 -84t-110 -32q-103 0 -150 65l32 38q44 -54 116 -54q43 0 68 19t25 51q0 69 -104 69q-34 0 -40 -1v50q7 -1 39 -1 q98 0 98 64q0 30 -25.5 47t-63.5 17q-64 0 -109 -49l-31 36q55 62 145 62q64 0 104 -29t40 -78q0 -40 -27 -63.5t-62 -29.5q34 -3 65 -28t31 -69z" />
<glyph unicode="&#xbf;" horiz-adv-x="394" d="M258 296q39 -35 39 -82q0 -35 -18.5 -63t-45 -47.5t-53 -37.5t-45 -42.5t-18.5 -53.5q0 -39 30.5 -65.5t86.5 -26.5q99 0 160 81l49 -53q-78 -102 -216 -102q-89 0 -142.5 44.5t-53.5 110.5q0 42 20 75.5t48 54.5t56.5 40t48.5 42t20 50q0 28 -26 48zM238 493 q22 0 38.5 -16.5t16.5 -39.5q0 -22 -16.5 -38t-38.5 -16t-38.5 16t-16.5 38q0 23 16.5 39.5t38.5 16.5z" />
<glyph unicode="&#xc0;" horiz-adv-x="658" d="M649 0h-95l-59 148h-332l-59 -148h-95l268 667h103zM470 222l-141 359l-142 -359h283zM386 723h-57l-169 144h78z" />
<glyph unicode="&#xc1;" horiz-adv-x="658" d="M649 0h-95l-59 148h-332l-59 -148h-95l268 667h103zM470 222l-141 359l-142 -359h283zM498 867l-169 -144h-57l148 144h78z" />
<glyph unicode="&#xc2;" horiz-adv-x="658" d="M463 723h-51l-83 106l-80 -106h-51l95 144h72zM649 0h-95l-59 148h-332l-59 -148h-95l268 667h103zM470 222l-141 359l-142 -359h283z" />
<glyph unicode="&#xc3;" horiz-adv-x="658" d="M649 0h-95l-59 148h-332l-59 -148h-95l268 667h103zM470 222l-141 359l-142 -359h283zM389 721q-25 0 -43.5 14.5t-27.5 31.5t-22.5 31.5t-29.5 14.5q-21 0 -34.5 -21.5t-13.5 -64.5h-45q0 60 25.5 97t71.5 37q24 0 42.5 -14.5t28 -31.5t23 -31.5t29.5 -14.5 q21 0 34.5 21.5t13.5 64.5h45q0 -60 -25.5 -97t-71.5 -37z" />
<glyph unicode="&#xc4;" horiz-adv-x="658" d="M480 771q0 -19 -14 -33t-33 -14t-33 14t-14 33t14 32.5t33 13.5t33 -13.5t14 -32.5zM273 771q0 -19 -13.5 -33t-32.5 -14t-33 14t-14 33t14 32.5t33 13.5t32.5 -13.5t13.5 -32.5zM649 0h-95l-59 148h-332l-59 -148h-95l268 667h103zM470 222l-141 359l-142 -359h283z" />
<glyph unicode="&#xc5;" horiz-adv-x="658" d="M649 0h-95l-59 148h-332l-59 -148h-95l268 667h103zM470 222l-141 359l-142 -359h283zM329 690q-41 0 -69.5 29t-28.5 69q0 41 29 70t69 29t69 -29t29 -70q0 -40 -28.5 -69t-69.5 -29zM329 729q24 0 41 17.5t17 41.5q0 25 -16.5 42t-41.5 17q-24 0 -41 -17t-17 -42 q0 -24 17 -41.5t41 -17.5z" />
<glyph unicode="&#xc6;" horiz-adv-x="947" d="M893 0h-437v148h-263l-91 -148h-95l416 667h470v-74h-354v-215h347v-74h-347v-230h354v-74zM456 222v359l-222 -359h222z" />
<glyph unicode="&#xc7;" horiz-adv-x="676" d="M388 -187q-64 0 -101 30l19 38q35 -29 80 -29q25 0 43 11.5t18 30.5q0 35 -37 35q-23 0 -38 -17l-33 19l21 59q-134 11 -221.5 105.5t-87.5 237.5q0 152 98.5 248.5t244.5 96.5q160 0 253 -132l-70 -39q-29 43 -78 70t-105 27q-110 0 -183.5 -76.5t-73.5 -194.5 t73.5 -194.5t183.5 -76.5q56 0 105 26.5t78 70.5l71 -39q-95 -128 -244 -132l-15 -39q16 11 37 11q29 0 47.5 -18.5t18.5 -48.5q0 -36 -30 -58t-74 -22z" />
<glyph unicode="&#xc8;" horiz-adv-x="569" d="M515 0h-437v667h437v-74h-354v-215h347v-74h-347v-230h354v-74zM353 723h-57l-169 144h78z" />
<glyph unicode="&#xc9;" horiz-adv-x="569" d="M465 867l-169 -144h-57l148 144h78zM515 0h-437v667h437v-74h-354v-215h347v-74h-347v-230h354v-74z" />
<glyph unicode="&#xca;" horiz-adv-x="569" d="M428 723h-51l-83 106l-80 -106h-51l95 144h72zM515 0h-437v667h437v-74h-354v-215h347v-74h-347v-230h354v-74z" />
<glyph unicode="&#xcb;" horiz-adv-x="569" d="M446 771q0 -19 -14 -33t-33 -14t-33 14t-14 33t14 32.5t33 13.5t33 -13.5t14 -32.5zM239 771q0 -19 -13.5 -33t-32.5 -14t-33 14t-14 33t14 32.5t33 13.5t32.5 -13.5t13.5 -32.5zM515 0h-437v667h437v-74h-354v-215h347v-74h-347v-230h354v-74z" />
<glyph unicode="&#xcc;" horiz-adv-x="239" d="M161 0h-83v667h83v-667zM176 723h-57l-169 144h78z" />
<glyph unicode="&#xcd;" horiz-adv-x="239" d="M161 0h-83v667h83v-667zM289 867l-169 -144h-57l148 144h78z" />
<glyph unicode="&#xce;" horiz-adv-x="239" d="M253 723h-51l-83 106l-80 -106h-51l95 144h72zM161 0h-83v667h83v-667z" />
<glyph unicode="&#xcf;" horiz-adv-x="239" d="M270 771q0 -19 -14 -33t-33 -14t-33 14t-14 33t14 32.5t33 13.5t33 -13.5t14 -32.5zM63 771q0 -19 -13.5 -33t-32.5 -14t-33 14t-14 33t14 32.5t33 13.5t32.5 -13.5t13.5 -32.5zM161 0h-83v667h83v-667z" />
<glyph unicode="&#xd0;" horiz-adv-x="728" d="M334 0h-228v299h-96v61h96v307h228q153 0 247.5 -95t94.5 -239q0 -145 -94.5 -239t-247.5 -94zM334 74q118 0 187 74t69 185q0 112 -68 186t-188 74h-145v-233h169v-61h-169v-225h145z" />
<glyph unicode="&#xd1;" horiz-adv-x="708" d="M412 721q-25 0 -43.5 14.5t-27.5 31.5t-22.5 31.5t-29.5 14.5q-21 0 -34.5 -21.5t-13.5 -64.5h-45q0 60 25.5 97t71.5 37q24 0 42.5 -14.5t28 -31.5t23 -31.5t29.5 -14.5q21 0 34.5 21.5t13.5 64.5h45q0 -60 -25.5 -97t-71.5 -37zM630 0h-80l-389 532v-532h-83v667h85 l384 -521v521h83v-667z" />
<glyph unicode="&#xd2;" horiz-adv-x="765" d="M440 723h-57l-169 144h78zM382 -12q-147 0 -239 98t-92 247t92 247t239 98q146 0 238.5 -98t92.5 -247t-92.5 -247t-238.5 -98zM382 62q110 0 177.5 76.5t67.5 194.5q0 119 -67.5 195t-177.5 76q-111 0 -178 -76t-67 -195q0 -118 67 -194.5t178 -76.5z" />
<glyph unicode="&#xd3;" horiz-adv-x="765" d="M552 867l-169 -144h-57l148 144h78zM382 -12q-147 0 -239 98t-92 247t92 247t239 98q146 0 238.5 -98t92.5 -247t-92.5 -247t-238.5 -98zM382 62q110 0 177.5 76.5t67.5 194.5q0 119 -67.5 195t-177.5 76q-111 0 -178 -76t-67 -195q0 -118 67 -194.5t178 -76.5z" />
<glyph unicode="&#xd4;" horiz-adv-x="765" d="M517 723h-51l-83 106l-80 -106h-51l95 144h72zM382 -12q-147 0 -239 98t-92 247t92 247t239 98q146 0 238.5 -98t92.5 -247t-92.5 -247t-238.5 -98zM382 62q110 0 177.5 76.5t67.5 194.5q0 119 -67.5 195t-177.5 76q-111 0 -178 -76t-67 -195q0 -118 67 -194.5t178 -76.5 z" />
<glyph unicode="&#xd5;" horiz-adv-x="765" d="M382 -12q-147 0 -239 98t-92 247t92 247t239 98q146 0 238.5 -98t92.5 -247t-92.5 -247t-238.5 -98zM382 62q110 0 177.5 76.5t67.5 194.5q0 119 -67.5 195t-177.5 76q-111 0 -178 -76t-67 -195q0 -118 67 -194.5t178 -76.5zM442 721q-25 0 -43.5 14.5t-27.5 31.5 t-22.5 31.5t-29.5 14.5q-21 0 -34.5 -21.5t-13.5 -64.5h-45q0 60 25.5 97t71.5 37q24 0 42.5 -14.5t28 -31.5t23 -31.5t29.5 -14.5q21 0 34.5 21.5t13.5 64.5h45q0 -60 -25.5 -97t-71.5 -37z" />
<glyph unicode="&#xd6;" horiz-adv-x="765" d="M532 771q0 -19 -14 -33t-33 -14t-33 14t-14 33t14 32.5t33 13.5t33 -13.5t14 -32.5zM325 771q0 -19 -13.5 -33t-32.5 -14t-33 14t-14 33t14 32.5t33 13.5t32.5 -13.5t13.5 -32.5zM382 -12q-147 0 -239 98t-92 247t92 247t239 98q146 0 238.5 -98t92.5 -247t-92.5 -247 t-238.5 -98zM382 62q110 0 177.5 76.5t67.5 194.5q0 119 -67.5 195t-177.5 76q-111 0 -178 -76t-67 -195q0 -118 67 -194.5t178 -76.5z" />
<glyph unicode="&#xd7;" horiz-adv-x="499" d="M398 148l-149 149l-148 -149l-37 37l148 149l-148 148l37 38l148 -149l149 149l37 -38l-148 -148l148 -149z" />
<glyph unicode="&#xd8;" horiz-adv-x="765" d="M382 -12q-97 0 -173 45l-22 -33h-66l44 65q-114 98 -114 268q0 149 92 247t239 98q92 0 167 -42l21 31h66l-42 -62q57 -47 88 -117.5t31 -154.5q0 -149 -92.5 -247t-238.5 -98zM382 62q110 0 177.5 76.5t67.5 194.5q0 130 -78 205l-297 -441q55 -35 130 -35zM137 333 q0 -126 73 -201l296 440q-56 32 -124 32q-111 0 -178 -76t-67 -195z" />
<glyph unicode="&#xd9;" horiz-adv-x="700" d="M350 -12q-133 0 -202.5 72.5t-69.5 198.5v408h83v-406q0 -93 49 -146t140 -53t140 53t49 146v406h83v-407q0 -127 -69.5 -199.5t-202.5 -72.5zM407 723h-57l-169 144h78z" />
<glyph unicode="&#xda;" horiz-adv-x="700" d="M519 867l-169 -144h-57l148 144h78zM350 -12q-133 0 -202.5 72.5t-69.5 198.5v408h83v-406q0 -93 49 -146t140 -53t140 53t49 146v406h83v-407q0 -127 -69.5 -199.5t-202.5 -72.5z" />
<glyph unicode="&#xdb;" horiz-adv-x="700" d="M485 723h-51l-83 106l-80 -106h-51l95 144h72zM350 -12q-133 0 -202.5 72.5t-69.5 198.5v408h83v-406q0 -93 49 -146t140 -53t140 53t49 146v406h83v-407q0 -127 -69.5 -199.5t-202.5 -72.5z" />
<glyph unicode="&#xdc;" horiz-adv-x="700" d="M501 771q0 -19 -14 -33t-33 -14t-33 14t-14 33t14 32.5t33 13.5t33 -13.5t14 -32.5zM294 771q0 -19 -13.5 -33t-32.5 -14q-20 0 -33.5 14t-13.5 33t14 32.5t33 13.5t32.5 -13.5t13.5 -32.5zM350 -12q-133 0 -202.5 72.5t-69.5 198.5v408h83v-406q0 -93 49 -146t140 -53 t140 53t49 146v406h83v-407q0 -127 -69.5 -199.5t-202.5 -72.5z" />
<glyph unicode="&#xdd;" horiz-adv-x="626" d="M355 0h-83v282l-263 385h97l207 -310l207 310h97l-262 -385v-282zM482 867l-169 -144h-57l148 144h78z" />
<glyph unicode="&#xde;" horiz-adv-x="587" d="M161 0h-83v667h83v-119h185q97 0 153 -58t56 -144q0 -85 -56.5 -142.5t-152.5 -57.5h-185v-146zM336 220q59 0 96 35t37 91t-37 92t-96 36h-175v-254h175z" />
<glyph unicode="&#xdf;" horiz-adv-x="597" d="M578 135q0 -62 -48.5 -104.5t-137.5 -42.5q-66 0 -107.5 20t-78.5 58l38 52q23 -30 61.5 -49.5t86.5 -19.5q54 0 83.5 24.5t29.5 59.5q0 32 -29.5 50.5t-71.5 28.5t-84.5 22.5t-72 43t-29.5 78.5q0 37 23 66t50 44t50 35t23 41q0 32 -30 50t-69 18q-49 0 -82 -30.5 t-33 -80.5v-499h-75v499q0 75 52.5 126.5t138.5 51.5q72 0 123.5 -34.5t51.5 -91.5q0 -37 -23.5 -65t-51.5 -42.5t-51.5 -37t-23.5 -49.5q0 -28 29.5 -44.5t71.5 -25.5t84.5 -22t72 -45.5t29.5 -84.5z" />
<glyph unicode="&#xe0;" horiz-adv-x="527" d="M452 0h-75v55q-61 -67 -160 -67q-67 0 -118 43t-51 117q0 76 50.5 117.5t118.5 41.5q103 0 160 -66v87q0 48 -34 75t-88 27q-85 0 -148 -67l-35 52q77 80 193 80q83 0 135 -40t52 -123v-332zM244 42q90 0 133 60v91q-43 60 -133 60q-52 0 -85.5 -29.5t-33.5 -76.5 q0 -46 33.5 -75.5t85.5 -29.5zM322 556h-57l-169 144h78z" />
<glyph unicode="&#xe1;" horiz-adv-x="527" d="M452 0h-75v55q-61 -67 -160 -67q-67 0 -118 43t-51 117q0 76 50.5 117.5t118.5 41.5q103 0 160 -66v87q0 48 -34 75t-88 27q-85 0 -148 -67l-35 52q77 80 193 80q83 0 135 -40t52 -123v-332zM244 42q90 0 133 60v91q-43 60 -133 60q-52 0 -85.5 -29.5t-33.5 -76.5 q0 -46 33.5 -75.5t85.5 -29.5zM434 700l-169 -144h-57l148 144h78z" />
<glyph unicode="&#xe2;" horiz-adv-x="527" d="M452 0h-75v55q-61 -67 -160 -67q-67 0 -118 43t-51 117q0 76 50.5 117.5t118.5 41.5q103 0 160 -66v87q0 48 -34 75t-88 27q-85 0 -148 -67l-35 52q77 80 193 80q83 0 135 -40t52 -123v-332zM244 42q90 0 133 60v91q-43 60 -133 60q-52 0 -85.5 -29.5t-33.5 -76.5 q0 -46 33.5 -75.5t85.5 -29.5zM398 556h-51l-83 106l-80 -106h-51l95 144h72z" />
<glyph unicode="&#xe3;" horiz-adv-x="527" d="M452 0h-75v55q-61 -67 -160 -67q-67 0 -118 43t-51 117q0 76 50.5 117.5t118.5 41.5q103 0 160 -66v87q0 48 -34 75t-88 27q-85 0 -148 -67l-35 52q77 80 193 80q83 0 135 -40t52 -123v-332zM244 42q90 0 133 60v91q-43 60 -133 60q-52 0 -85.5 -29.5t-33.5 -76.5 q0 -46 33.5 -75.5t85.5 -29.5zM325 554q-25 0 -43.5 14.5t-27.5 31.5t-22.5 31.5t-29.5 14.5q-21 0 -34.5 -21.5t-13.5 -64.5h-45q0 60 25.5 97t71.5 37q24 0 42.5 -14.5t28 -31.5t23 -31.5t29.5 -14.5q21 0 34.5 21.5t13.5 64.5h45q0 -60 -25.5 -97t-71.5 -37z" />
<glyph unicode="&#xe4;" horiz-adv-x="527" d="M452 0h-75v55q-61 -67 -160 -67q-67 0 -118 43t-51 117q0 76 50.5 117.5t118.5 41.5q103 0 160 -66v87q0 48 -34 75t-88 27q-85 0 -148 -67l-35 52q77 80 193 80q83 0 135 -40t52 -123v-332zM244 42q90 0 133 60v91q-43 60 -133 60q-52 0 -85.5 -29.5t-33.5 -76.5 q0 -46 33.5 -75.5t85.5 -29.5zM415 604q0 -19 -14 -33t-33 -14t-33 14t-14 33t14 32.5t33 13.5t33 -13.5t14 -32.5zM208 604q0 -19 -13.5 -33t-32.5 -14q-20 0 -33.5 13.5t-13.5 33.5q0 19 14 32.5t33 13.5t32.5 -13.5t13.5 -32.5z" />
<glyph unicode="&#xe5;" horiz-adv-x="527" d="M452 0h-75v55q-61 -67 -160 -67q-67 0 -118 43t-51 117q0 76 50.5 117.5t118.5 41.5q103 0 160 -66v87q0 48 -34 75t-88 27q-85 0 -148 -67l-35 52q77 80 193 80q83 0 135 -40t52 -123v-332zM244 42q90 0 133 60v91q-43 60 -133 60q-52 0 -85.5 -29.5t-33.5 -76.5 q0 -46 33.5 -75.5t85.5 -29.5zM265 543q-41 0 -69.5 28.5t-28.5 69.5t29 70t69 29t69 -29t29 -70t-28.5 -69.5t-69.5 -28.5zM265 582q24 0 41 17.5t17 41.5q0 25 -16.5 42t-41.5 17q-24 0 -41 -17t-17 -42q0 -24 17 -41.5t41 -17.5z" />
<glyph unicode="&#xe6;" horiz-adv-x="889" d="M843 217h-367q5 -71 48 -118t113 -47q84 0 139 61l36 -51q-72 -74 -178 -74q-136 0 -193 116q-26 -52 -79.5 -84t-119.5 -32q-82 0 -138 42.5t-56 117.5t51.5 117t126.5 42q112 0 175 -64v86q0 47 -36.5 74t-96.5 27q-94 0 -161 -67l-35 52q79 80 205 80q64 0 111 -26 t60 -79q60 105 179 105q101 0 158.5 -73t57.5 -186v-19zM476 272h293q-1 63 -38 112t-109 49q-66 0 -104.5 -49.5t-41.5 -111.5zM401 180v12q-52 61 -145 61q-59 0 -95 -27.5t-36 -73.5q0 -45 36 -72.5t95 -27.5q62 0 103.5 39t41.5 89z" />
<glyph unicode="&#xe7;" horiz-adv-x="495" d="M289 -189q-63 0 -101 30l19 38q35 -29 80 -29q25 0 43 11.5t18 30.5q0 35 -37 35q-23 0 -38 -17l-33 19l22 61q-96 9 -155.5 79t-59.5 173q0 109 67 181t174 72q112 0 177 -84l-50 -46q-46 63 -123 63q-76 0 -121.5 -52t-45.5 -134t45.5 -134.5t121.5 -52.5t123 63 l50 -46q-60 -77 -159 -83l-16 -42q16 11 37 11q29 0 47.5 -18.5t18.5 -48.5q0 -36 -30 -58t-74 -22z" />
<glyph unicode="&#xe8;" horiz-adv-x="563" d="M293 -12q-108 0 -177 70.5t-69 183.5q0 106 68 179.5t170 73.5q107 0 169.5 -73.5t62.5 -185.5v-19h-391q5 -71 52 -119t122 -48q90 0 149 61l36 -49q-74 -74 -192 -74zM443 272q-1 62 -42 111.5t-117 49.5q-72 0 -113.5 -49t-44.5 -112h317zM342 556h-57l-169 144h78z " />
<glyph unicode="&#xe9;" horiz-adv-x="563" d="M454 700l-169 -144h-57l148 144h78zM293 -12q-108 0 -177 70.5t-69 183.5q0 106 68 179.5t170 73.5q107 0 169.5 -73.5t62.5 -185.5v-19h-391q5 -71 52 -119t122 -48q90 0 149 61l36 -49q-74 -74 -192 -74zM443 272q-1 62 -42 111.5t-117 49.5q-72 0 -113.5 -49 t-44.5 -112h317z" />
<glyph unicode="&#xea;" horiz-adv-x="563" d="M419 556h-51l-83 106l-80 -106h-51l95 144h72zM293 -12q-108 0 -177 70.5t-69 183.5q0 106 68 179.5t170 73.5q107 0 169.5 -73.5t62.5 -185.5v-19h-391q5 -71 52 -119t122 -48q90 0 149 61l36 -49q-74 -74 -192 -74zM443 272q-1 62 -42 111.5t-117 49.5 q-72 0 -113.5 -49t-44.5 -112h317z" />
<glyph unicode="&#xeb;" horiz-adv-x="563" d="M436 604q0 -19 -14 -33t-33 -14t-33 14t-14 33t14 32.5t33 13.5t33 -13.5t14 -32.5zM229 604q0 -19 -13.5 -33t-32.5 -14t-33 13.5t-14 33.5q0 19 14 32.5t33 13.5t32.5 -13.5t13.5 -32.5zM293 -12q-108 0 -177 70.5t-69 183.5q0 106 68 179.5t170 73.5 q107 0 169.5 -73.5t62.5 -185.5v-19h-391q5 -71 52 -119t122 -48q90 0 149 61l36 -49q-74 -74 -192 -74zM443 272q-1 62 -42 111.5t-117 49.5q-72 0 -113.5 -49t-44.5 -112h317z" />
<glyph unicode="&#xec;" horiz-adv-x="225" d="M150 0h-75v483h75v-483zM169 556h-57l-169 144h78z" />
<glyph unicode="&#xed;" horiz-adv-x="225" d="M282 700l-169 -144h-57l148 144h78zM150 0h-75v483h75v-483z" />
<glyph unicode="&#xee;" horiz-adv-x="225" d="M245 556h-51l-83 106l-80 -106h-51l95 144h72zM150 0h-75v483h75v-483z" />
<glyph unicode="&#xef;" horiz-adv-x="225" d="M263 604q0 -19 -14 -33t-33 -14t-33 14t-14 33t14 32.5t33 13.5t33 -13.5t14 -32.5zM56 604q0 -19 -13.5 -33t-32.5 -14q-20 0 -33.5 13.5t-13.5 33.5q0 19 14 32.5t33 13.5t32.5 -13.5t13.5 -32.5zM150 0h-75v483h75v-483z" />
<glyph unicode="&#xf0;" d="M122 497l-18 42l118 52q-11 7 -23.5 15t-28 18t-23.5 15l41 62q67 -41 112 -76l108 48l17 -41l-86 -38q186 -158 186 -347q0 -114 -65 -186.5t-174 -72.5q-107 0 -173 70t-66 176t62 175.5t158 69.5t158 -89q-49 88 -160 170zM286 55q74 0 117 52t43 127q0 74 -43 126 t-117 52t-117.5 -52t-43.5 -126q0 -75 43.5 -127t117.5 -52z" />
<glyph unicode="&#xf1;" horiz-adv-x="551" d="M476 0h-75v316q0 61 -28 86.5t-80 25.5q-42 0 -81.5 -22t-61.5 -53v-353h-75v483h75v-70q28 33 75 57.5t97 24.5q154 0 154 -156v-339zM336 554q-25 0 -43.5 14.5t-27.5 31.5t-22.5 31.5t-29.5 14.5q-21 0 -34.5 -21.5t-13.5 -64.5h-45q0 60 25.5 97t71.5 37 q24 0 42.5 -14.5t28 -31.5t23 -31.5t29.5 -14.5q21 0 34.5 21.5t13.5 64.5h45q0 -60 -25.5 -97t-71.5 -37z" />
<glyph unicode="&#xf2;" d="M286 -12q-108 0 -173.5 73t-65.5 181t65.5 180.5t173.5 72.5t173.5 -72.5t65.5 -180.5t-65.5 -181t-173.5 -73zM286 55q74 0 117 54.5t43 132.5t-43 132t-117 54t-117.5 -54.5t-43.5 -131.5q0 -78 43.5 -132.5t117.5 -54.5zM343 556h-57l-169 144h78z" />
<glyph unicode="&#xf3;" d="M455 700l-169 -144h-57l148 144h78zM286 -12q-108 0 -173.5 73t-65.5 181t65.5 180.5t173.5 72.5t173.5 -72.5t65.5 -180.5t-65.5 -181t-173.5 -73zM286 55q74 0 117 54.5t43 132.5t-43 132t-117 54t-117.5 -54.5t-43.5 -131.5q0 -78 43.5 -132.5t117.5 -54.5z" />
<glyph unicode="&#xf4;" d="M419 556h-51l-83 106l-80 -106h-51l95 144h72zM286 -12q-108 0 -173.5 73t-65.5 181t65.5 180.5t173.5 72.5t173.5 -72.5t65.5 -180.5t-65.5 -181t-173.5 -73zM286 55q74 0 117 54.5t43 132.5t-43 132t-117 54t-117.5 -54.5t-43.5 -131.5q0 -78 43.5 -132.5t117.5 -54.5z " />
<glyph unicode="&#xf5;" d="M286 -12q-108 0 -173.5 73t-65.5 181t65.5 180.5t173.5 72.5t173.5 -72.5t65.5 -180.5t-65.5 -181t-173.5 -73zM286 55q74 0 117 54.5t43 132.5t-43 132t-117 54t-117.5 -54.5t-43.5 -131.5q0 -78 43.5 -132.5t117.5 -54.5zM346 554q-25 0 -43.5 14.5t-27.5 31.5 t-22.5 31.5t-29.5 14.5q-21 0 -34.5 -21.5t-13.5 -64.5h-45q0 60 25.5 97t71.5 37q24 0 42.5 -14.5t28 -31.5t23 -31.5t29.5 -14.5q21 0 34.5 21.5t13.5 64.5h45q0 -60 -25.5 -97t-71.5 -37z" />
<glyph unicode="&#xf6;" d="M436 604q0 -19 -14 -33t-33 -14t-33 14t-14 33t14 32.5t33 13.5t33 -13.5t14 -32.5zM229 604q0 -19 -13.5 -33t-32.5 -14t-33 13.5t-14 33.5q0 19 14 32.5t33 13.5t32.5 -13.5t13.5 -32.5zM286 -12q-108 0 -173.5 73t-65.5 181t65.5 180.5t173.5 72.5t173.5 -72.5 t65.5 -180.5t-65.5 -181t-173.5 -73zM286 55q74 0 117 54.5t43 132.5t-43 132t-117 54t-117.5 -54.5t-43.5 -131.5q0 -78 43.5 -132.5t117.5 -54.5z" />
<glyph unicode="&#xf7;" horiz-adv-x="511" d="M302 526q0 -19 -14 -32.5t-33 -13.5t-32 13.5t-13 32.5t13 32.5t32 13.5q20 0 33.5 -13.5t13.5 -32.5zM482 311h-453v52h453v-52zM302 144q0 -19 -14 -32.5t-33 -13.5t-32 13.5t-13 32.5t13 32.5t32 13.5t33 -13.5t14 -32.5z" />
<glyph unicode="&#xf8;" d="M118 0h-54l48 61q-65 71 -65 181q0 108 65.5 180.5t173.5 72.5q79 0 137 -41l23 29h54l-45 -57q70 -72 70 -184q0 -108 -65.5 -181t-173.5 -73q-83 0 -142 45zM286 55q74 0 117 54.5t43 132.5q0 73 -38 125l-220 -278q42 -34 98 -34zM125 242q0 -70 34 -121l219 277 q-38 30 -92 30q-74 0 -117.5 -54.5t-43.5 -131.5z" />
<glyph unicode="&#xf9;" horiz-adv-x="551" d="M476 0h-75v68q-30 -34 -75.5 -57t-96.5 -23q-154 0 -154 154v341h75v-318q0 -60 27.5 -85t80.5 -25q42 0 81.5 21t61.5 52v355h75v-483zM332 556h-57l-169 144h78z" />
<glyph unicode="&#xfa;" horiz-adv-x="551" d="M444 700l-169 -144h-57l148 144h78zM476 0h-75v68q-30 -34 -75.5 -57t-96.5 -23q-154 0 -154 154v341h75v-318q0 -60 27.5 -85t80.5 -25q42 0 81.5 21t61.5 52v355h75v-483z" />
<glyph unicode="&#xfb;" horiz-adv-x="551" d="M408 556h-51l-83 106l-80 -106h-51l95 144h72zM476 0h-75v68q-30 -34 -75.5 -57t-96.5 -23q-154 0 -154 154v341h75v-318q0 -60 27.5 -85t80.5 -25q42 0 81.5 21t61.5 52v355h75v-483z" />
<glyph unicode="&#xfc;" horiz-adv-x="551" d="M427 604q0 -19 -14 -33t-33 -14t-33 14t-14 33t14 32.5t33 13.5t33 -13.5t14 -32.5zM220 604q0 -19 -13.5 -33t-32.5 -14q-20 0 -33.5 13.5t-13.5 33.5q0 19 14 32.5t33 13.5t32.5 -13.5t13.5 -32.5zM476 0h-75v68q-30 -34 -75.5 -57t-96.5 -23q-154 0 -154 154v341h75 v-318q0 -60 27.5 -85t80.5 -25q42 0 81.5 21t61.5 52v355h75v-483z" />
<glyph unicode="&#xfd;" horiz-adv-x="490" d="M48 -189l12 68q18 -8 41 -8q26 0 43 11t29 40l32 73l-202 488h81l161 -396l160 396h82l-242 -581q-40 -96 -142 -98q-30 0 -55 7zM414 700l-169 -144h-57l148 144h78z" />
<glyph unicode="&#xfe;" d="M313 -12q-102 0 -163 85v-257h-75v851h75v-256q27 38 70 61t93 23q96 0 155.5 -68.5t59.5 -184.5t-59.5 -185t-155.5 -69zM294 55q71 0 113 52.5t42 134.5t-42 134t-113 52q-43 0 -83.5 -22.5t-60.5 -54.5v-218q20 -33 60.5 -55.5t83.5 -22.5z" />
<glyph unicode="&#xff;" horiz-adv-x="490" d="M48 -189l12 68q18 -8 41 -8q26 0 43 11t29 40l32 73l-202 488h81l161 -396l160 396h82l-242 -581q-40 -96 -142 -98q-30 0 -55 7zM395 604q0 -19 -14 -33t-33 -14t-33 14t-14 33t14 32.5t33 13.5t33 -13.5t14 -32.5zM188 604q0 -19 -13.5 -33t-32.5 -14q-20 0 -33.5 13.5 t-13.5 33.5q0 19 14 32.5t33 13.5t32.5 -13.5t13.5 -32.5z" />
<glyph unicode="&#x100;" horiz-adv-x="658" d="M649 0h-95l-59 148h-332l-59 -148h-95l268 667h103zM470 222l-141 359l-142 -359h283zM510 739h-363v48h363v-48z" />
<glyph unicode="&#x101;" horiz-adv-x="527" d="M452 0h-75v55q-61 -67 -160 -67q-67 0 -118 43t-51 117q0 76 50.5 117.5t118.5 41.5q103 0 160 -66v87q0 48 -34 75t-88 27q-85 0 -148 -67l-35 52q77 80 193 80q83 0 135 -40t52 -123v-332zM244 42q90 0 133 60v91q-43 60 -133 60q-52 0 -85.5 -29.5t-33.5 -76.5 q0 -46 33.5 -75.5t85.5 -29.5zM445 572h-363v48h363v-48z" />
<glyph unicode="&#x102;" horiz-adv-x="658" d="M649 0h-95l-59 148h-332l-59 -148h-95l268 667h103zM470 222l-141 359l-142 -359h283zM504 793q-65 -88 -175 -88q-109 0 -176 88l37 32q52 -72 139 -72q88 0 138 72z" />
<glyph unicode="&#x103;" horiz-adv-x="527" d="M452 0h-75v55q-61 -67 -160 -67q-67 0 -118 43t-51 117q0 76 50.5 117.5t118.5 41.5q103 0 160 -66v87q0 48 -34 75t-88 27q-85 0 -148 -67l-35 52q77 80 193 80q83 0 135 -40t52 -123v-332zM244 42q90 0 133 60v91q-43 60 -133 60q-52 0 -85.5 -29.5t-33.5 -76.5 q0 -46 33.5 -75.5t85.5 -29.5zM439 626q-65 -88 -175 -88q-109 0 -176 88l37 32q52 -72 139 -72q88 0 138 72z" />
<glyph unicode="&#x104;" horiz-adv-x="658" d="M669 -105l37 -21q-26 -60 -89 -60q-38 0 -63.5 22t-25.5 65q0 57 53 99h-27l-59 148h-332l-59 -148h-95l268 667h103l269 -667q-76 -38 -76 -97q0 -50 44 -50q38 0 52 42zM470 222l-141 359l-142 -359h283z" />
<glyph unicode="&#x105;" horiz-adv-x="527" d="M472 -105l37 -21q-26 -60 -89 -60q-38 0 -63.5 22t-25.5 65q0 57 53 99h-7v55q-61 -67 -160 -67q-67 0 -118 43t-51 117q0 76 50.5 117.5t118.5 41.5q103 0 160 -66v87q0 48 -34 75t-88 27q-85 0 -148 -67l-35 52q77 80 193 80q83 0 135 -40t52 -123v-332 q-76 -38 -76 -97q0 -50 44 -50q38 0 52 42zM244 42q90 0 133 60v91q-43 60 -133 60q-52 0 -85.5 -29.5t-33.5 -76.5q0 -46 33.5 -75.5t85.5 -29.5z" />
<glyph unicode="&#x106;" horiz-adv-x="676" d="M563 867l-169 -144h-57l148 144h78zM394 -12q-146 0 -244.5 96.5t-98.5 248.5t98.5 248.5t244.5 96.5q160 0 253 -132l-70 -39q-29 43 -78 70t-105 27q-110 0 -183.5 -76.5t-73.5 -194.5t73.5 -194.5t183.5 -76.5q56 0 105 26.5t78 70.5l71 -39q-97 -132 -254 -132z" />
<glyph unicode="&#x107;" horiz-adv-x="495" d="M456 700l-169 -144h-57l148 144h78zM288 -12q-107 0 -174 72.5t-67 181.5t67 181t174 72q112 0 177 -84l-50 -46q-46 63 -123 63q-76 0 -121.5 -52t-45.5 -134t45.5 -134.5t121.5 -52.5t123 63l50 -46q-65 -84 -177 -84z" />
<glyph unicode="&#x108;" horiz-adv-x="676" d="M526 723h-51l-83 106l-80 -106h-51l95 144h72zM394 -12q-146 0 -244.5 96.5t-98.5 248.5t98.5 248.5t244.5 96.5q160 0 253 -132l-70 -39q-29 43 -78 70t-105 27q-110 0 -183.5 -76.5t-73.5 -194.5t73.5 -194.5t183.5 -76.5q56 0 105 26.5t78 70.5l71 -39 q-97 -132 -254 -132z" />
<glyph unicode="&#x109;" horiz-adv-x="495" d="M421 556h-51l-83 106l-80 -106h-51l95 144h72zM288 -12q-107 0 -174 72.5t-67 181.5t67 181t174 72q112 0 177 -84l-50 -46q-46 63 -123 63q-76 0 -121.5 -52t-45.5 -134t45.5 -134.5t121.5 -52.5t123 63l50 -46q-65 -84 -177 -84z" />
<glyph unicode="&#x10a;" horiz-adv-x="676" d="M394 -12q-146 0 -244.5 96.5t-98.5 248.5t98.5 248.5t244.5 96.5q160 0 253 -132l-70 -39q-29 43 -78 70t-105 27q-110 0 -183.5 -76.5t-73.5 -194.5t73.5 -194.5t183.5 -76.5q56 0 105 26.5t78 70.5l71 -39q-97 -132 -254 -132zM396 722q-19 0 -33 14t-14 33t14 33 t33 14t32.5 -13.5t13.5 -33.5t-13.5 -33.5t-32.5 -13.5z" />
<glyph unicode="&#x10b;" horiz-adv-x="495" d="M288 -12q-107 0 -174 72.5t-67 181.5t67 181t174 72q112 0 177 -84l-50 -46q-46 63 -123 63q-76 0 -121.5 -52t-45.5 -134t45.5 -134.5t121.5 -52.5t123 63l50 -46q-65 -84 -177 -84zM290 555q-19 0 -33 14t-14 33t14 33t33 14t32.5 -13.5t13.5 -33.5t-13.5 -33.5 t-32.5 -13.5z" />
<glyph unicode="&#x10c;" horiz-adv-x="676" d="M431 723h-72l-98 144h51l83 -106l80 106h51zM394 -12q-146 0 -244.5 96.5t-98.5 248.5t98.5 248.5t244.5 96.5q160 0 253 -132l-70 -39q-29 43 -78 70t-105 27q-110 0 -183.5 -76.5t-73.5 -194.5t73.5 -194.5t183.5 -76.5q56 0 105 26.5t78 70.5l71 -39 q-97 -132 -254 -132z" />
<glyph unicode="&#x10d;" horiz-adv-x="495" d="M326 556h-72l-98 144h51l83 -106l80 106h51zM288 -12q-107 0 -174 72.5t-67 181.5t67 181t174 72q112 0 177 -84l-50 -46q-46 63 -123 63q-76 0 -121.5 -52t-45.5 -134t45.5 -134.5t121.5 -52.5t123 63l50 -46q-65 -84 -177 -84z" />
<glyph unicode="&#x10e;" horiz-adv-x="700" d="M389 723h-72l-98 144h51l83 -106l80 106h51zM306 0h-228v667h228q153 0 247.5 -95t94.5 -239q0 -145 -94.5 -239t-247.5 -94zM306 74q118 0 187 74t69 185q0 112 -68 186t-188 74h-145v-519h145z" />
<glyph unicode="&#x10f;" horiz-adv-x="644" d="M648 613q0 -39 -20 -75t-51 -59l-33 26q23 15 39.5 39.5t18.5 46.5q-2 -2 -11 -2q-18 0 -30 12.5t-12 31.5q0 20 13.5 33.5t32.5 13.5q22 0 37.5 -18t15.5 -49zM500 0h-75v72q-62 -84 -163 -84q-96 0 -155.5 68.5t-59.5 184.5q0 115 59.5 184.5t155.5 69.5q100 0 163 -85 v257h75v-667zM280 55q44 0 84 22t61 54v219q-21 33 -61.5 55.5t-83.5 22.5q-71 0 -113 -52.5t-42 -134.5t42 -134t113 -52z" />
<glyph unicode="&#x110;" horiz-adv-x="728" d="M334 0h-228v299h-96v61h96v307h228q153 0 247.5 -95t94.5 -239q0 -145 -94.5 -239t-247.5 -94zM334 74q118 0 187 74t69 185q0 112 -68 186t-188 74h-145v-233h169v-61h-169v-225h145z" />
<glyph unicode="&#x111;" horiz-adv-x="577" d="M500 0h-75v72q-62 -84 -163 -84q-96 0 -155.5 68.5t-59.5 184.5q0 115 59.5 184.5t155.5 69.5q100 0 163 -85v125h-157v48h157v84h75v-84h68v-48h-68v-535zM280 55q44 0 84 22t61 54v219q-21 33 -61.5 55.5t-83.5 22.5q-71 0 -113 -52.5t-42 -134.5t42 -134t113 -52z" />
<glyph unicode="&#x112;" horiz-adv-x="569" d="M515 0h-437v667h437v-74h-354v-215h347v-74h-347v-230h354v-74zM477 739h-363v48h363v-48z" />
<glyph unicode="&#x113;" horiz-adv-x="563" d="M293 -12q-108 0 -177 70.5t-69 183.5q0 106 68 179.5t170 73.5q107 0 169.5 -73.5t62.5 -185.5v-19h-391q5 -71 52 -119t122 -48q90 0 149 61l36 -49q-74 -74 -192 -74zM443 272q-1 62 -42 111.5t-117 49.5q-72 0 -113.5 -49t-44.5 -112h317zM466 572h-363v48h363v-48z " />
<glyph unicode="&#x114;" horiz-adv-x="569" d="M515 0h-437v667h437v-74h-354v-215h347v-74h-347v-230h354v-74zM473 793q-65 -88 -175 -88q-109 0 -176 88l37 32q52 -72 139 -72q88 0 138 72z" />
<glyph unicode="&#x115;" horiz-adv-x="563" d="M293 -12q-108 0 -177 70.5t-69 183.5q0 106 68 179.5t170 73.5q107 0 169.5 -73.5t62.5 -185.5v-19h-391q5 -71 52 -119t122 -48q90 0 149 61l36 -49q-74 -74 -192 -74zM443 272q-1 62 -42 111.5t-117 49.5q-72 0 -113.5 -49t-44.5 -112h317zM462 626q-65 -88 -175 -88 q-109 0 -176 88l37 32q52 -72 139 -72q88 0 138 72z" />
<glyph unicode="&#x116;" horiz-adv-x="569" d="M515 0h-437v667h437v-74h-354v-215h347v-74h-347v-230h354v-74zM300 722q-19 0 -33 14t-14 33t14 33t33 14t32.5 -13.5t13.5 -33.5t-13.5 -33.5t-32.5 -13.5z" />
<glyph unicode="&#x117;" horiz-adv-x="563" d="M293 -12q-108 0 -177 70.5t-69 183.5q0 106 68 179.5t170 73.5q107 0 169.5 -73.5t62.5 -185.5v-19h-391q5 -71 52 -119t122 -48q90 0 149 61l36 -49q-74 -74 -192 -74zM443 272q-1 62 -42 111.5t-117 49.5q-72 0 -113.5 -49t-44.5 -112h317zM286 555q-19 0 -33 14 t-14 33t14 33t33 14t32.5 -13.5t13.5 -33.5t-13.5 -33.5t-32.5 -13.5z" />
<glyph unicode="&#x118;" horiz-adv-x="569" d="M515 0q-76 -38 -76 -97q0 -50 44 -50q38 0 52 42l37 -21q-26 -60 -89 -60q-38 0 -63.5 22t-25.5 65q0 57 53 99h-369v667h437v-74h-354v-215h347v-74h-347v-230h354v-74z" />
<glyph unicode="&#x119;" horiz-adv-x="563" d="M293 -12q-108 0 -177 70.5t-69 183.5q0 106 68 179.5t170 73.5q107 0 169.5 -73.5t62.5 -185.5v-19h-391q5 -71 52 -119t122 -48q90 0 149 61l36 -49q-46 -46 -106 -62q-75 -38 -75 -97q0 -50 44 -50q38 0 52 42l37 -21q-26 -60 -89 -60q-38 0 -63.5 22t-25.5 65 q0 48 39 87h-5zM443 272q-1 62 -42 111.5t-117 49.5q-72 0 -113.5 -49t-44.5 -112h317z" />
<glyph unicode="&#x11a;" horiz-adv-x="569" d="M335 723h-72l-98 144h51l83 -106l80 106h51zM515 0h-437v667h437v-74h-354v-215h347v-74h-347v-230h354v-74z" />
<glyph unicode="&#x11b;" horiz-adv-x="563" d="M323 556h-72l-98 144h51l83 -106l80 106h51zM293 -12q-108 0 -177 70.5t-69 183.5q0 106 68 179.5t170 73.5q107 0 169.5 -73.5t62.5 -185.5v-19h-391q5 -71 52 -119t122 -48q90 0 149 61l36 -49q-74 -74 -192 -74zM443 272q-1 62 -42 111.5t-117 49.5q-72 0 -113.5 -49 t-44.5 -112h317z" />
<glyph unicode="&#x11c;" horiz-adv-x="713" d="M531 723h-51l-83 106l-80 -106h-51l95 144h72zM394 -13q-145 0 -244 96.5t-99 249.5t99 249t244 96q158 0 259 -125l-66 -41q-32 42 -83.5 67t-109.5 25q-110 0 -183.5 -76.5t-73.5 -194.5t73.5 -195t183.5 -77q55 0 102.5 21.5t76.5 50.5v136h-229v74h312v-241 q-103 -115 -262 -115z" />
<glyph unicode="&#x11d;" horiz-adv-x="574" d="M423 556h-51l-83 106l-80 -106h-51l95 144h72zM269 -196q-64 0 -109 15.5t-86 56.5l38 56q55 -66 157 -66q67 0 111 35.5t44 109.5v69q-27 -38 -70 -62t-92 -24q-96 0 -155.5 67.5t-59.5 182.5t59.5 183t155.5 68q99 0 162 -85v73h75v-469q0 -111 -65 -160.5t-165 -49.5z M280 60q43 0 83.5 23t60.5 56v211q-20 33 -60 55.5t-84 22.5q-72 0 -113.5 -51t-41.5 -133q0 -81 42 -132.5t113 -51.5z" />
<glyph unicode="&#x11e;" horiz-adv-x="713" d="M394 -13q-145 0 -244 96.5t-99 249.5t99 249t244 96q158 0 259 -125l-66 -41q-32 42 -83.5 67t-109.5 25q-110 0 -183.5 -76.5t-73.5 -194.5t73.5 -195t183.5 -77q55 0 102.5 21.5t76.5 50.5v136h-229v74h312v-241q-103 -115 -262 -115zM572 793q-65 -88 -175 -88 q-109 0 -176 88l37 32q52 -72 139 -72q88 0 138 72z" />
<glyph unicode="&#x11f;" horiz-adv-x="574" d="M269 -196q-64 0 -109 15.5t-86 56.5l38 56q55 -66 157 -66q67 0 111 35.5t44 109.5v69q-27 -38 -70 -62t-92 -24q-96 0 -155.5 67.5t-59.5 182.5t59.5 183t155.5 68q99 0 162 -85v73h75v-469q0 -111 -65 -160.5t-165 -49.5zM280 60q43 0 83.5 23t60.5 56v211 q-20 33 -60 55.5t-84 22.5q-72 0 -113.5 -51t-41.5 -133q0 -81 42 -132.5t113 -51.5zM465 626q-65 -88 -175 -88q-109 0 -176 88l37 32q52 -72 139 -72q88 0 138 72z" />
<glyph unicode="&#x120;" horiz-adv-x="713" d="M394 -13q-145 0 -244 96.5t-99 249.5t99 249t244 96q158 0 259 -125l-66 -41q-32 42 -83.5 67t-109.5 25q-110 0 -183.5 -76.5t-73.5 -194.5t73.5 -195t183.5 -77q55 0 102.5 21.5t76.5 50.5v136h-229v74h312v-241q-103 -115 -262 -115zM396 722q-19 0 -33 14t-14 33 t14 33t33 14t32.5 -13.5t13.5 -33.5t-13.5 -33.5t-32.5 -13.5z" />
<glyph unicode="&#x121;" horiz-adv-x="574" d="M269 -196q-64 0 -109 15.5t-86 56.5l38 56q55 -66 157 -66q67 0 111 35.5t44 109.5v69q-27 -38 -70 -62t-92 -24q-96 0 -155.5 67.5t-59.5 182.5t59.5 183t155.5 68q99 0 162 -85v73h75v-469q0 -111 -65 -160.5t-165 -49.5zM280 60q43 0 83.5 23t60.5 56v211 q-20 33 -60 55.5t-84 22.5q-72 0 -113.5 -51t-41.5 -133q0 -81 42 -132.5t113 -51.5zM289 555q-19 0 -33 14t-14 33t14 33t33 14t32.5 -13.5t13.5 -33.5t-13.5 -33.5t-32.5 -13.5z" />
<glyph unicode="&#x122;" horiz-adv-x="713" d="M448 -138q0 -39 -20 -75t-51 -59l-33 26q23 15 39.5 39.5t18.5 46.5q-2 -2 -11 -2q-18 0 -30 12.5t-12 31.5q0 20 13.5 33.5t32.5 13.5q22 0 37.5 -18t15.5 -49zM394 -13q-145 0 -244 96.5t-99 249.5t99 249t244 96q158 0 259 -125l-66 -41q-32 42 -83.5 67t-109.5 25 q-110 0 -183.5 -76.5t-73.5 -194.5t73.5 -195t183.5 -77q55 0 102.5 21.5t76.5 50.5v136h-229v74h312v-241q-103 -115 -262 -115z" />
<glyph unicode="&#x123;" horiz-adv-x="574" d="M238 611q0 43 19.5 81.5t49.5 59.5l33 -27q-22 -15 -39 -38.5t-18 -45.5q2 1 5 1q17 0 31.5 -13.5t14.5 -31.5t-14 -32t-34 -14q-19 0 -33.5 15.5t-14.5 44.5zM269 -196q-64 0 -109 15.5t-86 56.5l38 56q55 -66 157 -66q67 0 111 35.5t44 109.5v69q-27 -38 -70 -62 t-92 -24q-96 0 -155.5 67.5t-59.5 182.5t59.5 183t155.5 68q99 0 162 -85v73h75v-469q0 -111 -65 -160.5t-165 -49.5zM280 60q43 0 83.5 23t60.5 56v211q-20 33 -60 55.5t-84 22.5q-72 0 -113.5 -51t-41.5 -133q0 -81 42 -132.5t113 -51.5z" />
<glyph unicode="&#x124;" horiz-adv-x="712" d="M486 723h-51l-83 106l-80 -106h-51l95 144h72zM634 0h-83v306h-390v-306h-83v667h83v-287h390v287h83v-667z" />
<glyph unicode="&#x125;" horiz-adv-x="552" d="M410 723h-51l-83 106l-80 -106h-51l95 144h72zM477 0h-75v318q0 60 -28 85t-81 25q-41 0 -80.5 -22t-62.5 -53v-353h-75v667h75v-254q28 33 75 57.5t98 24.5q154 0 154 -154v-341z" />
<glyph unicode="&#x126;" horiz-adv-x="731" d="M644 0h-83v306h-390v-306h-83v498h-78v48h78v121h83v-121h390v121h83v-121h77v-48h-77v-498zM171 380h390v118h-390v-118z" />
<glyph unicode="&#x127;" horiz-adv-x="554" d="M308 535h-156v-122q28 33 75 57.5t98 24.5q154 0 154 -154v-341h-75v318q0 60 -28 85t-81 25q-41 0 -80.5 -22t-62.5 -53v-353h-75v535h-68v48h68v84h75v-84h156v-48z" />
<glyph unicode="&#x128;" horiz-adv-x="239" d="M161 0h-83v667h83v-667zM179 721q-25 0 -43.5 14.5t-27.5 31.5t-22.5 31.5t-29.5 14.5q-21 0 -34.5 -21.5t-13.5 -64.5h-45q0 60 25.5 97t71.5 37q24 0 42.5 -14.5t28 -31.5t23 -31.5t29.5 -14.5q21 0 34.5 21.5t13.5 64.5h45q0 -60 -25.5 -97t-71.5 -37z" />
<glyph unicode="&#x129;" horiz-adv-x="225" d="M150 0h-75v483h75v-483zM172 554q-25 0 -43.5 14.5t-27.5 31.5t-22.5 31.5t-29.5 14.5q-21 0 -34.5 -21.5t-13.5 -64.5h-45q0 60 25.5 97t71.5 37q24 0 42.5 -14.5t28 -31.5t23 -31.5t29.5 -14.5q21 0 34.5 21.5t13.5 64.5h45q0 -60 -25.5 -97t-71.5 -37z" />
<glyph unicode="&#x12a;" horiz-adv-x="239" d="M161 0h-83v667h83v-667zM302 739h-363v48h363v-48z" />
<glyph unicode="&#x12b;" horiz-adv-x="225" d="M150 0h-75v483h75v-483zM294 572h-363v48h363v-48z" />
<glyph unicode="&#x12c;" horiz-adv-x="239" d="M161 0h-83v667h83v-667zM296 793q-65 -88 -175 -88q-109 0 -176 88l37 32q52 -72 139 -72q88 0 138 72z" />
<glyph unicode="&#x12d;" horiz-adv-x="225" d="M150 0h-75v483h75v-483zM288 626q-65 -88 -175 -88q-109 0 -176 88l37 32q52 -72 139 -72q88 0 138 72z" />
<glyph unicode="&#x12e;" horiz-adv-x="239" d="M181 -105l37 -21q-26 -60 -89 -60q-38 0 -63.5 22t-25.5 65q0 57 53 99h-15v667h83v-667q-76 -38 -76 -97q0 -50 44 -50q38 0 52 42z" />
<glyph unicode="&#x12f;" horiz-adv-x="225" d="M170 -105l37 -21q-26 -60 -89 -60q-38 0 -63.5 22t-25.5 65q0 57 53 99h-7v483h75v-483q-76 -38 -76 -97q0 -50 44 -50q38 0 52 42zM112 552q-20 0 -35 14.5t-15 35.5t15 36t35 15q21 0 36 -15t15 -36t-15 -35.5t-36 -14.5z" />
<glyph unicode="&#x130;" horiz-adv-x="239" d="M161 0h-83v667h83v-667zM120 722q-19 0 -33 14t-14 33t14 33t33 14t32.5 -13.5t13.5 -33.5t-13.5 -33.5t-32.5 -13.5z" />
<glyph unicode="&#x131;" horiz-adv-x="225" d="M150 0h-75v483h75v-483z" />
<glyph unicode="&#x132;" horiz-adv-x="713" d="M161 0h-83v667h83v-667zM424 -12q-108 0 -174 77l43 63q55 -66 126 -66q61 0 97.5 38.5t36.5 101.5v465h83v-466q0 -104 -59 -158.5t-153 -54.5z" />
<glyph unicode="&#x133;" horiz-adv-x="451" d="M112 552q-20 0 -35 14.5t-15 35.5t15 36t35 15q21 0 36 -15t15 -36t-15 -35.5t-36 -14.5zM150 0h-75v483h75v-483zM337 552q-20 0 -35 14.5t-15 35.5t15 36t35 15q21 0 36 -15t15 -36t-15 -35.5t-36 -14.5zM232 -196q-59 0 -106 36l27 57q31 -31 69 -31q36 0 57 21.5 t21 65.5v530h75v-530q0 -71 -37 -110t-106 -39z" />
<glyph unicode="&#x134;" horiz-adv-x="475" d="M488 723h-51l-83 106l-80 -106h-51l95 144h72zM185 -12q-108 0 -174 77l43 63q55 -66 126 -66q61 0 97.5 38.5t36.5 101.5v465h83v-466q0 -104 -59 -158.5t-153 -54.5z" />
<glyph unicode="&#x135;" horiz-adv-x="225" d="M247 556h-51l-83 106l-80 -106h-51l95 144h72zM7 -196q-59 0 -106 36l27 57q31 -31 69 -31q36 0 57 21.5t21 65.5v530h75v-530q0 -71 -37 -110t-106 -39z" />
<glyph unicode="&#x136;" horiz-adv-x="606" d="M360 -138q0 -39 -20 -75t-51 -59l-33 26q23 15 39.5 39.5t18.5 46.5q-2 -2 -11 -2q-18 0 -30 12.5t-12 31.5q0 20 13.5 33.5t32.5 13.5q22 0 37.5 -18t15.5 -49zM584 0h-103l-253 300l-67 -76v-224h-83v667h83v-345l295 345h104l-278 -317z" />
<glyph unicode="&#x137;" horiz-adv-x="514" d="M314 -138q0 -39 -20 -75t-51 -59l-33 26q23 15 39.5 39.5t18.5 46.5q-2 -2 -11 -2q-18 0 -30 12.5t-12 31.5q0 20 13.5 33.5t32.5 13.5q22 0 37.5 -18t15.5 -49zM500 0h-96l-174 217l-80 -79v-138h-75v667h75v-441l254 257h95l-214 -219z" />
<glyph unicode="&#x138;" horiz-adv-x="514" d="M500 0h-96l-174 217l-80 -79v-138h-75v483h75v-257l254 257h95l-214 -219z" />
<glyph unicode="&#x139;" horiz-adv-x="510" d="M443 867l-169 -144h-57l148 144h78zM471 0h-393v667h83v-593h310v-74z" />
<glyph unicode="&#x13a;" horiz-adv-x="225" d="M282 867l-169 -144h-57l148 144h78zM150 0h-75v667h75v-667z" />
<glyph unicode="&#x13b;" horiz-adv-x="510" d="M319 -138q0 -39 -20 -75t-51 -59l-33 26q23 15 39.5 39.5t18.5 46.5q-2 -2 -11 -2q-18 0 -30 12.5t-12 31.5q0 20 13.5 33.5t32.5 13.5q22 0 37.5 -18t15.5 -49zM471 0h-393v667h83v-593h310v-74z" />
<glyph unicode="&#x13c;" horiz-adv-x="225" d="M170 -138q0 -39 -20 -75t-51 -59l-33 26q23 15 39.5 39.5t18.5 46.5q-2 -2 -11 -2q-18 0 -30 12.5t-12 31.5q0 20 13.5 33.5t32.5 13.5q22 0 37.5 -18t15.5 -49zM150 0h-75v667h75v-667z" />
<glyph unicode="&#x13d;" horiz-adv-x="510" d="M354 613q0 -39 -20 -75t-51 -59l-33 26q23 15 39.5 39.5t18.5 46.5q-2 -2 -11 -2q-18 0 -30 12.5t-12 31.5q0 20 13.5 33.5t32.5 13.5q22 0 37.5 -18t15.5 -49zM471 0h-393v667h83v-593h310v-74z" />
<glyph unicode="&#x13e;" horiz-adv-x="291" d="M311 613q0 -39 -20 -75t-51 -59l-33 26q23 15 39.5 39.5t18.5 46.5q-2 -2 -11 -2q-18 0 -30 12.5t-12 31.5q0 20 13.5 33.5t32.5 13.5q22 0 37.5 -18t15.5 -49zM150 0h-75v667h75v-667z" />
<glyph unicode="&#x13f;" horiz-adv-x="510" d="M471 0h-393v667h83v-593h310v-74zM424 341q0 -22 -16.5 -38t-38.5 -16t-38.5 16t-16.5 38q0 23 16 39t39 16t39 -16t16 -39z" />
<glyph unicode="&#x140;" horiz-adv-x="307" d="M150 0h-75v667h75v-667zM321 244q0 -22 -16.5 -38t-38.5 -16t-38.5 16t-16.5 38t16.5 38.5t38.5 16.5t38.5 -16.5t16.5 -38.5z" />
<glyph unicode="&#x141;" horiz-adv-x="529" d="M10 221v72l87 50v324h83v-276l97 56v-72l-97 -56v-245h310v-74h-393v271z" />
<glyph unicode="&#x142;" horiz-adv-x="287" d="M10 228v60l96 55v324h75v-281l95 54v-60l-95 -54v-326h-75v283z" />
<glyph unicode="&#x143;" horiz-adv-x="708" d="M531 867l-169 -144h-57l148 144h78zM630 0h-80l-389 532v-532h-83v667h85l384 -521v521h83v-667z" />
<glyph unicode="&#x144;" horiz-adv-x="551" d="M444 700l-169 -144h-57l148 144h78zM476 0h-75v316q0 61 -28 86.5t-80 25.5q-42 0 -81.5 -22t-61.5 -53v-353h-75v483h75v-70q28 33 75 57.5t97 24.5q154 0 154 -156v-339z" />
<glyph unicode="&#x145;" horiz-adv-x="708" d="M411 -138q0 -39 -20 -75t-51 -59l-33 26q23 15 39.5 39.5t18.5 46.5q-2 -2 -11 -2q-18 0 -30 12.5t-12 31.5q0 20 13.5 33.5t32.5 13.5q22 0 37.5 -18t15.5 -49zM630 0h-80l-389 532v-532h-83v667h85l384 -521v521h83v-667z" />
<glyph unicode="&#x146;" horiz-adv-x="551" d="M330 -138q0 -39 -20 -75t-51 -59l-33 26q23 15 39.5 39.5t18.5 46.5q-2 -2 -11 -2q-18 0 -30 12.5t-12 31.5q0 20 13.5 33.5t32.5 13.5q22 0 37.5 -18t15.5 -49zM476 0h-75v316q0 61 -28 86.5t-80 25.5q-42 0 -81.5 -22t-61.5 -53v-353h-75v483h75v-70q28 33 75 57.5 t97 24.5q154 0 154 -156v-339z" />
<glyph unicode="&#x147;" horiz-adv-x="708" d="M390 723h-72l-98 144h51l83 -106l80 106h51zM630 0h-80l-389 532v-532h-83v667h85l384 -521v521h83v-667z" />
<glyph unicode="&#x148;" horiz-adv-x="551" d="M314 556h-72l-98 144h51l83 -106l80 106h51zM476 0h-75v316q0 61 -28 86.5t-80 25.5q-42 0 -81.5 -22t-61.5 -53v-353h-75v483h75v-70q28 33 75 57.5t97 24.5q154 0 154 -156v-339z" />
<glyph unicode="&#x149;" horiz-adv-x="551" d="M161 676q0 -39 -20 -75t-51 -59l-33 26q23 15 39.5 39.5t18.5 46.5q-2 -2 -11 -2q-18 0 -30 12.5t-12 31.5q0 20 13.5 33.5t32.5 13.5q22 0 37.5 -18t15.5 -49zM476 0h-75v316q0 61 -28 86.5t-80 25.5q-42 0 -81.5 -22t-61.5 -53v-353h-75v483h75v-70q28 33 75 57.5 t97 24.5q154 0 154 -156v-339z" />
<glyph unicode="&#x14a;" horiz-adv-x="708" d="M418 -196q-108 0 -174 77l44 63q53 -66 125 -66q58 0 94 34.5t39 91.5l-385 528v-532h-83v667h85l384 -521v521h83v-652q0 -104 -59 -157.5t-153 -53.5z" />
<glyph unicode="&#x14b;" horiz-adv-x="551" d="M476 339v-386q0 -72 -37 -110.5t-106 -38.5q-59 0 -105 36l26 61q30 -30 69 -30q36 0 57 20.5t21 61.5v363q0 61 -28 86.5t-80 25.5q-42 0 -81.5 -22t-61.5 -53v-353h-75v483h75v-70q28 33 75 57.5t97 24.5q154 0 154 -156z" />
<glyph unicode="&#x14c;" horiz-adv-x="765" d="M563 739h-363v48h363v-48zM382 -12q-147 0 -239 98t-92 247t92 247t239 98q146 0 238.5 -98t92.5 -247t-92.5 -247t-238.5 -98zM382 62q110 0 177.5 76.5t67.5 194.5q0 119 -67.5 195t-177.5 76q-111 0 -178 -76t-67 -195q0 -118 67 -194.5t178 -76.5z" />
<glyph unicode="&#x14d;" d="M467 572h-363v48h363v-48zM286 -12q-108 0 -173.5 73t-65.5 181t65.5 180.5t173.5 72.5t173.5 -72.5t65.5 -180.5t-65.5 -181t-173.5 -73zM286 55q74 0 117 54.5t43 132.5t-43 132t-117 54t-117.5 -54.5t-43.5 -131.5q0 -78 43.5 -132.5t117.5 -54.5z" />
<glyph unicode="&#x14e;" horiz-adv-x="765" d="M382 -12q-147 0 -239 98t-92 247t92 247t239 98q146 0 238.5 -98t92.5 -247t-92.5 -247t-238.5 -98zM382 62q110 0 177.5 76.5t67.5 194.5q0 119 -67.5 195t-177.5 76q-111 0 -178 -76t-67 -195q0 -118 67 -194.5t178 -76.5zM557 793q-65 -88 -175 -88q-109 0 -176 88 l37 32q52 -72 139 -72q88 0 138 72z" />
<glyph unicode="&#x14f;" d="M286 -12q-108 0 -173.5 73t-65.5 181t65.5 180.5t173.5 72.5t173.5 -72.5t65.5 -180.5t-65.5 -181t-173.5 -73zM286 55q74 0 117 54.5t43 132.5t-43 132t-117 54t-117.5 -54.5t-43.5 -131.5q0 -78 43.5 -132.5t117.5 -54.5zM462 626q-65 -88 -175 -88q-109 0 -176 88 l37 32q52 -72 139 -72q88 0 138 72z" />
<glyph unicode="&#x150;" horiz-adv-x="765" d="M435 867l-115 -144h-48l94 144h69zM577 867l-115 -144h-48l94 144h69zM382 -12q-147 0 -239 98t-92 247t92 247t239 98q146 0 238.5 -98t92.5 -247t-92.5 -247t-238.5 -98zM382 62q110 0 177.5 76.5t67.5 194.5q0 119 -67.5 195t-177.5 76q-111 0 -178 -76t-67 -195 q0 -118 67 -194.5t178 -76.5z" />
<glyph unicode="&#x151;" d="M339 700l-115 -144h-48l94 144h69zM481 700l-115 -144h-48l94 144h69zM286 -12q-108 0 -173.5 73t-65.5 181t65.5 180.5t173.5 72.5t173.5 -72.5t65.5 -180.5t-65.5 -181t-173.5 -73zM286 55q74 0 117 54.5t43 132.5t-43 132t-117 54t-117.5 -54.5t-43.5 -131.5 q0 -78 43.5 -132.5t117.5 -54.5z" />
<glyph unicode="&#x152;" horiz-adv-x="1105" d="M1051 0h-438v120q-36 -63 -100.5 -97.5t-137.5 -34.5q-144 0 -234 98t-90 247t90 246.5t234 97.5q73 0 137.5 -34t100.5 -97v121h438v-74h-355v-215h348v-74h-348v-230h355v-74zM613 223v220q-29 78 -89.5 119t-139.5 41q-112 0 -179.5 -75.5t-67.5 -194.5t67.5 -195 t179.5 -76q79 0 139.5 41.5t89.5 119.5z" />
<glyph unicode="&#x153;" horiz-adv-x="962" d="M916 217h-390q5 -71 51.5 -119t121.5 -48q89 0 150 61l36 -49q-76 -74 -192 -74q-83 0 -133 41.5t-75 96.5q-62 -138 -199 -138q-108 0 -173.5 73t-65.5 181t65.5 180.5t173.5 72.5q42 0 78 -14t59.5 -36.5t38 -43.5t24.5 -44q22 52 71.5 95t126.5 43q107 0 169.5 -73.5 t62.5 -185.5v-19zM525 272h318q-2 62 -43 111.5t-117 49.5q-72 0 -113.5 -49t-44.5 -112zM446 242q0 79 -43.5 132.5t-116.5 53.5t-117 -53.5t-44 -132.5t44 -133.5t117 -54.5t116.5 54t43.5 134z" />
<glyph unicode="&#x154;" horiz-adv-x="608" d="M480 867l-169 -144h-57l148 144h78zM562 0h-98l-170 265h-133v-265h-83v667h268q93 0 151 -55t58 -146q0 -86 -50 -137t-123 -57zM336 338q59 0 96 36t37 92t-37 91.5t-96 35.5h-175v-255h175z" />
<glyph unicode="&#x155;" horiz-adv-x="330" d="M362 700l-169 -144h-57l148 144h78zM150 0h-75v483h75v-78q67 88 161 88v-77q-14 3 -30 3q-34 0 -74 -24t-57 -53v-342z" />
<glyph unicode="&#x156;" horiz-adv-x="608" d="M362 -138q0 -39 -20 -75t-51 -59l-33 26q23 15 39.5 39.5t18.5 46.5q-2 -2 -11 -2q-18 0 -30 12.5t-12 31.5q0 20 13.5 33.5t32.5 13.5q22 0 37.5 -18t15.5 -49zM562 0h-98l-170 265h-133v-265h-83v667h268q93 0 151 -55t58 -146q0 -86 -50 -137t-123 -57zM336 338 q59 0 96 36t37 92t-37 91.5t-96 35.5h-175v-255h175z" />
<glyph unicode="&#x157;" horiz-adv-x="330" d="M221 -138q0 -39 -20 -75t-51 -59l-33 26q23 15 39.5 39.5t18.5 46.5q-2 -2 -11 -2q-18 0 -30 12.5t-12 31.5q0 20 13.5 33.5t32.5 13.5q22 0 37.5 -18t15.5 -49zM150 0h-75v483h75v-78q67 88 161 88v-77q-14 3 -30 3q-34 0 -74 -24t-57 -53v-342z" />
<glyph unicode="&#x158;" horiz-adv-x="608" d="M343 723h-72l-98 144h51l83 -106l80 106h51zM562 0h-98l-170 265h-133v-265h-83v667h268q93 0 151 -55t58 -146q0 -86 -50 -137t-123 -57zM336 338q59 0 96 36t37 92t-37 91.5t-96 35.5h-175v-255h175z" />
<glyph unicode="&#x159;" horiz-adv-x="330" d="M229 556h-72l-98 144h51l83 -106l80 106h51zM150 0h-75v483h75v-78q67 88 161 88v-77q-14 3 -30 3q-34 0 -74 -24t-57 -53v-342z" />
<glyph unicode="&#x15a;" horiz-adv-x="586" d="M460 867l-169 -144h-57l148 144h78zM294 -12q-162 0 -256 106l49 63q85 -95 210 -95q81 0 119 34.5t38 80.5q0 35 -22 59t-56.5 37.5t-77 24.5t-84.5 24.5t-76.5 32.5t-56.5 54t-22 83q0 82 65 133.5t164 51.5q149 0 237 -93l-50 -61q-73 80 -193 80q-60 0 -98.5 -29.5 t-38.5 -76.5q0 -35 29.5 -58t73 -34t95 -27.5t95 -35t73 -59.5t29.5 -99q0 -82 -60.5 -139t-185.5 -57z" />
<glyph unicode="&#x15b;" horiz-adv-x="465" d="M397 700l-169 -144h-57l148 144h78zM228 -12q-123 0 -195 76l39 54q25 -29 68.5 -49t90.5 -20q54 0 84 23t30 60q0 32 -31 50.5t-74.5 28t-87.5 22t-75 43t-31 80.5q0 59 48.5 99t131.5 40q109 0 179 -70l-35 -52q-51 61 -144 61q-49 0 -78 -21.5t-29 -54.5 q0 -29 31 -45.5t74.5 -26t87.5 -22.5t75 -45.5t31 -84.5q0 -64 -50 -105t-140 -41z" />
<glyph unicode="&#x15c;" horiz-adv-x="586" d="M418 723h-51l-83 106l-80 -106h-51l95 144h72zM294 -12q-162 0 -256 106l49 63q85 -95 210 -95q81 0 119 34.5t38 80.5q0 35 -22 59t-56.5 37.5t-77 24.5t-84.5 24.5t-76.5 32.5t-56.5 54t-22 83q0 82 65 133.5t164 51.5q149 0 237 -93l-50 -61q-73 80 -193 80 q-60 0 -98.5 -29.5t-38.5 -76.5q0 -35 29.5 -58t73 -34t95 -27.5t95 -35t73 -59.5t29.5 -99q0 -82 -60.5 -139t-185.5 -57z" />
<glyph unicode="&#x15d;" horiz-adv-x="465" d="M361 556h-51l-83 106l-80 -106h-51l95 144h72zM228 -12q-123 0 -195 76l39 54q25 -29 68.5 -49t90.5 -20q54 0 84 23t30 60q0 32 -31 50.5t-74.5 28t-87.5 22t-75 43t-31 80.5q0 59 48.5 99t131.5 40q109 0 179 -70l-35 -52q-51 61 -144 61q-49 0 -78 -21.5t-29 -54.5 q0 -29 31 -45.5t74.5 -26t87.5 -22.5t75 -45.5t31 -84.5q0 -64 -50 -105t-140 -41z" />
<glyph unicode="&#x15e;" horiz-adv-x="586" d="M288 -191q-64 0 -101 30l19 38q35 -29 80 -29q25 0 43 11.5t18 30.5q0 35 -37 35q-23 0 -38 -17l-33 19l23 62q-140 11 -224 105l49 63q85 -95 210 -95q81 0 119 34.5t38 80.5q0 35 -22 59t-56.5 37.5t-77 24.5t-84.5 24.5t-76.5 32.5t-56.5 54t-22 83q0 82 65 133.5 t164 51.5q149 0 237 -93l-50 -61q-73 80 -193 80q-60 0 -98.5 -29.5t-38.5 -76.5q0 -35 29.5 -58t73 -34t95 -27.5t95 -35t73 -59.5t29.5 -99q0 -80 -57.5 -136.5t-176.5 -59.5l-17 -43q16 11 37 11q29 0 47.5 -18.5t18.5 -48.5q0 -36 -30 -58t-74 -22z" />
<glyph unicode="&#x15f;" horiz-adv-x="465" d="M227 -191q-63 0 -101 30l19 38q35 -29 80 -29q25 0 43 11.5t18 30.5q0 35 -37 35q-23 0 -38 -17l-33 19l23 62q-105 8 -168 75l39 54q25 -29 68.5 -49t90.5 -20q54 0 84 23t30 60q0 32 -31 50.5t-74.5 28t-87.5 22t-75 43t-31 80.5q0 59 48.5 99t131.5 40q109 0 179 -70 l-35 -52q-51 61 -144 61q-49 0 -78 -21.5t-29 -54.5q0 -29 31 -45.5t74.5 -26t87.5 -22.5t75 -45.5t31 -84.5q0 -61 -45 -101t-128 -44l-17 -44q16 11 37 11q29 0 47.5 -18.5t18.5 -48.5q0 -36 -30 -58t-74 -22z" />
<glyph unicode="&#x160;" horiz-adv-x="586" d="M323 723h-72l-98 144h51l83 -106l80 106h51zM294 -12q-162 0 -256 106l49 63q85 -95 210 -95q81 0 119 34.5t38 80.5q0 35 -22 59t-56.5 37.5t-77 24.5t-84.5 24.5t-76.5 32.5t-56.5 54t-22 83q0 82 65 133.5t164 51.5q149 0 237 -93l-50 -61q-73 80 -193 80 q-60 0 -98.5 -29.5t-38.5 -76.5q0 -35 29.5 -58t73 -34t95 -27.5t95 -35t73 -59.5t29.5 -99q0 -82 -60.5 -139t-185.5 -57z" />
<glyph unicode="&#x161;" horiz-adv-x="465" d="M266 556h-72l-98 144h51l83 -106l80 106h51zM228 -12q-123 0 -195 76l39 54q25 -29 68.5 -49t90.5 -20q54 0 84 23t30 60q0 32 -31 50.5t-74.5 28t-87.5 22t-75 43t-31 80.5q0 59 48.5 99t131.5 40q109 0 179 -70l-35 -52q-51 61 -144 61q-49 0 -78 -21.5t-29 -54.5 q0 -29 31 -45.5t74.5 -26t87.5 -22.5t75 -45.5t31 -84.5q0 -64 -50 -105t-140 -41z" />
<glyph unicode="&#x162;" horiz-adv-x="570" d="M341 -138q0 -39 -20 -75t-51 -59l-33 26q23 15 39.5 39.5t18.5 46.5q-2 -2 -11 -2q-18 0 -30 12.5t-12 31.5q0 20 13.5 33.5t32.5 13.5q22 0 37.5 -18t15.5 -49zM326 0h-83v593h-211v74h506v-74h-212v-593z" />
<glyph unicode="&#x163;" horiz-adv-x="294" d="M203 -138q0 -39 -20 -75t-51 -59l-33 26q23 15 39.5 39.5t18.5 46.5q-2 -2 -11 -2q-18 0 -30 12.5t-12 31.5q0 20 13.5 33.5t32.5 13.5q22 0 37.5 -18t15.5 -49zM197 -12q-53 0 -80 29t-27 84v316h-80v66h80v132h75v-132h98v-66h-98v-300q0 -28 12.5 -45t36.5 -17 q33 0 51 20l22 -56q-33 -31 -90 -31z" />
<glyph unicode="&#x164;" horiz-adv-x="570" d="M322 723h-72l-98 144h51l83 -106l80 106h51zM326 0h-83v593h-211v74h506v-74h-212v-593z" />
<glyph unicode="&#x165;" horiz-adv-x="313" d="M325 676q0 -39 -20 -75t-51 -59l-33 26q23 15 39.5 39.5t18.5 46.5q-2 -2 -11 -2q-18 0 -30 12.5t-12 31.5q0 20 13.5 33.5t32.5 13.5q22 0 37.5 -18t15.5 -49zM197 -12q-53 0 -80 29t-27 84v316h-80v66h80v132h75v-132h98v-66h-98v-300q0 -28 12.5 -45t36.5 -17 q33 0 51 20l22 -56q-33 -31 -90 -31z" />
<glyph unicode="&#x166;" horiz-adv-x="570" d="M326 0h-83v294h-150v48h150v251h-211v74h506v-74h-212v-251h152v-48h-152v-294z" />
<glyph unicode="&#x167;" horiz-adv-x="294" d="M197 -12q-53 0 -80 29t-27 84v125h-80v48h80v143h-80v66h80v132h75v-132h98v-66h-98v-143h70v-48h-70v-109q0 -28 12.5 -45t36.5 -17q33 0 51 20l22 -56q-33 -31 -90 -31z" />
<glyph unicode="&#x168;" horiz-adv-x="700" d="M350 -12q-133 0 -202.5 72.5t-69.5 198.5v408h83v-406q0 -93 49 -146t140 -53t140 53t49 146v406h83v-407q0 -127 -69.5 -199.5t-202.5 -72.5zM412 721q-25 0 -43.5 14.5t-27.5 31.5t-22.5 31.5t-29.5 14.5q-21 0 -34.5 -21.5t-13.5 -64.5h-45q0 60 25.5 97t71.5 37 q24 0 42.5 -14.5t28 -31.5t23 -31.5t29.5 -14.5q21 0 34.5 21.5t13.5 64.5h45q0 -60 -25.5 -97t-71.5 -37z" />
<glyph unicode="&#x169;" horiz-adv-x="551" d="M476 0h-75v68q-30 -34 -75.5 -57t-96.5 -23q-154 0 -154 154v341h75v-318q0 -60 27.5 -85t80.5 -25q42 0 81.5 21t61.5 52v355h75v-483zM335 554q-25 0 -43.5 14.5t-27.5 31.5t-22.5 31.5t-29.5 14.5q-21 0 -34.5 -21.5t-13.5 -64.5h-45q0 60 25.5 97t71.5 37 q24 0 42.5 -14.5t28 -31.5t23 -31.5t29.5 -14.5q21 0 34.5 21.5t13.5 64.5h45q0 -60 -25.5 -97t-71.5 -37z" />
<glyph unicode="&#x16a;" horiz-adv-x="700" d="M350 -12q-133 0 -202.5 72.5t-69.5 198.5v408h83v-406q0 -93 49 -146t140 -53t140 53t49 146v406h83v-407q0 -127 -69.5 -199.5t-202.5 -72.5zM532 739h-363v48h363v-48z" />
<glyph unicode="&#x16b;" horiz-adv-x="551" d="M476 0h-75v68q-30 -34 -75.5 -57t-96.5 -23q-154 0 -154 154v341h75v-318q0 -60 27.5 -85t80.5 -25q42 0 81.5 21t61.5 52v355h75v-483zM456 572h-363v48h363v-48z" />
<glyph unicode="&#x16c;" horiz-adv-x="700" d="M350 -12q-133 0 -202.5 72.5t-69.5 198.5v408h83v-406q0 -93 49 -146t140 -53t140 53t49 146v406h83v-407q0 -127 -69.5 -199.5t-202.5 -72.5zM528 793q-65 -88 -175 -88q-109 0 -176 88l37 32q52 -72 139 -72q88 0 138 72z" />
<glyph unicode="&#x16d;" horiz-adv-x="551" d="M476 0h-75v68q-30 -34 -75.5 -57t-96.5 -23q-154 0 -154 154v341h75v-318q0 -60 27.5 -85t80.5 -25q42 0 81.5 21t61.5 52v355h75v-483zM452 626q-65 -88 -175 -88q-109 0 -176 88l37 32q52 -72 139 -72q88 0 138 72z" />
<glyph unicode="&#x16e;" horiz-adv-x="700" d="M351 710q-41 0 -69.5 29t-28.5 69q0 41 29 70t69 29t69 -29t29 -70q0 -40 -28.5 -69t-69.5 -29zM351 749q24 0 41 17.5t17 41.5q0 25 -16.5 42t-41.5 17q-24 0 -41 -17t-17 -42q0 -24 17 -41.5t41 -17.5zM350 -12q-133 0 -202.5 72.5t-69.5 198.5v408h83v-406 q0 -93 49 -146t140 -53t140 53t49 146v406h83v-407q0 -127 -69.5 -199.5t-202.5 -72.5z" />
<glyph unicode="&#x16f;" horiz-adv-x="551" d="M276 543q-40 0 -69 28.5t-29 69.5t29 70t69 29t69 -29t29 -70t-29 -69.5t-69 -28.5zM276 582q24 0 41 17.5t17 41.5q0 25 -16.5 42t-41.5 17q-24 0 -41 -17t-17 -42q0 -24 17 -41.5t41 -17.5zM476 0h-75v68q-30 -34 -75.5 -57t-96.5 -23q-154 0 -154 154v341h75v-318 q0 -60 27.5 -85t80.5 -25q42 0 81.5 21t61.5 52v355h75v-483z" />
<glyph unicode="&#x170;" horiz-adv-x="700" d="M350 -12q-133 0 -202.5 72.5t-69.5 198.5v408h83v-406q0 -93 49 -146t140 -53t140 53t49 146v406h83v-407q0 -127 -69.5 -199.5t-202.5 -72.5zM404 867l-115 -144h-48l94 144h69zM546 867l-115 -144h-48l94 144h69z" />
<glyph unicode="&#x171;" horiz-adv-x="551" d="M476 0h-75v68q-30 -34 -75.5 -57t-96.5 -23q-154 0 -154 154v341h75v-318q0 -60 27.5 -85t80.5 -25q42 0 81.5 21t61.5 52v355h75v-483zM329 700l-115 -144h-48l94 144h69zM471 700l-115 -144h-48l94 144h69z" />
<glyph unicode="&#x172;" horiz-adv-x="700" d="M350 -12q-133 0 -202.5 72.5t-69.5 198.5v408h83v-406q0 -93 49 -146t140 -53t140 53t49 146v406h83v-407q0 -101 -44.5 -168.5t-130.5 -91.5q-76 -38 -76 -97q0 -50 44 -50q38 0 52 42l37 -21q-26 -60 -89 -60q-38 0 -63.5 22t-25.5 65q0 48 39 87h-15z" />
<glyph unicode="&#x173;" horiz-adv-x="551" d="M476 0q-76 -38 -76 -97q0 -50 44 -50q38 0 52 42l37 -21q-26 -60 -89 -60q-38 0 -63.5 22t-25.5 65q0 57 53 99h-7v68q-30 -34 -75.5 -57t-96.5 -23q-154 0 -154 154v341h75v-318q0 -60 27.5 -85t80.5 -25q42 0 81.5 21t61.5 52v355h75v-483z" />
<glyph unicode="&#x174;" horiz-adv-x="883" d="M574 723h-51l-83 106l-80 -106h-51l95 144h72zM678 0h-90l-147 538l-147 -538h-90l-190 667h92l148 -556l153 556h69l153 -556l147 556h92z" />
<glyph unicode="&#x175;" horiz-adv-x="734" d="M500 556h-51l-83 106l-80 -106h-51l95 144h72zM568 0h-75l-126 388l-126 -388h-75l-154 483h78l118 -385l127 385h64l127 -385l118 385h78z" />
<glyph unicode="&#x176;" horiz-adv-x="626" d="M447 723h-51l-83 106l-80 -106h-51l95 144h72zM355 0h-83v282l-263 385h97l207 -310l207 310h97l-262 -385v-282z" />
<glyph unicode="&#x177;" horiz-adv-x="490" d="M48 -189l12 68q18 -8 41 -8q26 0 43 11t29 40l32 73l-202 488h81l161 -396l160 396h82l-242 -581q-40 -96 -142 -98q-30 0 -55 7zM378 556h-51l-83 106l-80 -106h-51l95 144h72z" />
<glyph unicode="&#x178;" horiz-adv-x="626" d="M465 771q0 -19 -14 -33t-33 -14t-33 14t-14 33t14 32.5t33 13.5t33 -13.5t14 -32.5zM258 771q0 -19 -13.5 -33t-32.5 -14q-20 0 -33.5 14t-13.5 33t14 32.5t33 13.5t32.5 -13.5t13.5 -32.5zM355 0h-83v282l-263 385h97l207 -310l207 310h97l-262 -385v-282z" />
<glyph unicode="&#x179;" horiz-adv-x="585" d="M461 867l-169 -144h-57l148 144h78zM536 0h-488v69l375 524h-375v74h481v-69l-375 -524h382v-74z" />
<glyph unicode="&#x17a;" horiz-adv-x="472" d="M404 700l-169 -144h-57l148 144h78zM420 0h-368v58l266 359h-266v66h364v-57l-268 -361h272v-65z" />
<glyph unicode="&#x17b;" horiz-adv-x="585" d="M536 0h-488v69l375 524h-375v74h481v-69l-375 -524h382v-74zM290 722q-19 0 -33 14t-14 33t14 33t33 14t32.5 -13.5t13.5 -33.5t-13.5 -33.5t-32.5 -13.5z" />
<glyph unicode="&#x17c;" horiz-adv-x="472" d="M420 0h-368v58l266 359h-266v66h364v-57l-268 -361h272v-65zM235 555q-19 0 -33 14t-14 33t14 33t33 14t32.5 -13.5t13.5 -33.5t-13.5 -33.5t-32.5 -13.5z" />
<glyph unicode="&#x17d;" horiz-adv-x="585" d="M327 723h-72l-98 144h51l83 -106l80 106h51zM536 0h-488v69l375 524h-375v74h481v-69l-375 -524h382v-74z" />
<glyph unicode="&#x17e;" horiz-adv-x="472" d="M268 556h-72l-98 144h51l83 -106l80 106h51zM420 0h-368v58l266 359h-266v66h364v-57l-268 -361h272v-65z" />
<glyph unicode="&#x17f;" horiz-adv-x="283" d="M171 0h-75v417h-80v66h80v37q0 74 37.5 115.5t102.5 41.5q62 0 102 -37l-31 -53q-26 23 -60 23q-36 0 -56 -24t-20 -66v-520z" />
<glyph unicode="&#x192;" horiz-adv-x="431" d="M109 -161h-84l92 415h-68v68h82l46 204q15 70 62 110.5t112 40.5q59 0 94 -36l-37 -61q-18 23 -50 23q-36 0 -63 -24.5t-37 -67.5l-42 -189h139v-68h-154z" />
<glyph unicode="&#x1a0;" horiz-adv-x="765" d="M382 -12q-147 0 -239 98t-92 247t92 247t239 98q154 0 249 -110q41 34 46 76q-2 -2 -11 -2q-17 0 -28 12t-11 29q0 18 12 31t30 13q21 0 35.5 -17t14.5 -46q0 -37 -18.5 -71t-46.5 -55q59 -91 59 -205q0 -149 -92.5 -247t-238.5 -98zM382 62q110 0 177.5 76.5t67.5 194.5 q0 119 -67.5 195t-177.5 76q-111 0 -178 -76t-67 -195q0 -118 67 -194.5t178 -76.5z" />
<glyph unicode="&#x1a1;" d="M527 530q0 -71 -58 -120q56 -68 56 -168q0 -108 -65.5 -181t-173.5 -73t-173.5 73t-65.5 181t65.5 180.5t173.5 72.5q92 0 157 -57q37 32 42 72q-1 0 -5 -0.5t-6 -0.5q-17 0 -28.5 11.5t-11.5 29.5q0 17 12.5 30t30.5 13q21 0 35.5 -17t14.5 -46zM286 55q74 0 117 54.5 t43 132.5t-43 132t-117 54t-117.5 -54.5t-43.5 -131.5q0 -78 43.5 -132.5t117.5 -54.5z" />
<glyph unicode="&#x1af;" horiz-adv-x="700" d="M738 728q0 -48 -31 -90t-85 -64v-314q0 -127 -69.5 -199.5t-202.5 -72.5t-202.5 72.5t-69.5 198.5v408h83v-406q0 -93 49 -146t140 -53t140 53t49 146v406h83v-54q29 15 50 41.5t23 53.5h-5q-4 -1 -6 -1q-17 0 -28 11.5t-11 29.5t12.5 30.5t30.5 12.5q21 0 35.5 -17 t14.5 -46z" />
<glyph unicode="&#x1b0;" horiz-adv-x="551" d="M476 0h-75v68q-30 -34 -75.5 -57t-96.5 -23q-154 0 -154 154v341h75v-318q0 -60 27.5 -85t80.5 -25q42 0 81.5 21t61.5 52v355h75v-48q48 36 51 81h-5q-4 -1 -6 -1q-17 0 -28.5 11.5t-11.5 29.5q0 17 12.5 30t30.5 13q21 0 36 -17t15 -46q0 -43 -25.5 -82t-68.5 -62v-392 z" />
<glyph unicode="&#x1fc;" horiz-adv-x="947" d="M668 867l-169 -144h-57l148 144h78zM893 0h-437v148h-263l-91 -148h-95l416 667h470v-74h-354v-215h347v-74h-347v-230h354v-74zM456 222v359l-222 -359h222z" />
<glyph unicode="&#x1fd;" horiz-adv-x="889" d="M586 700l-169 -144h-57l148 144h78zM843 217h-367q5 -71 48 -118t113 -47q84 0 139 61l36 -51q-72 -74 -178 -74q-136 0 -193 116q-26 -52 -79.5 -84t-119.5 -32q-82 0 -138 42.5t-56 117.5t51.5 117t126.5 42q112 0 175 -64v86q0 47 -36.5 74t-96.5 27q-94 0 -161 -67 l-35 52q79 80 205 80q64 0 111 -26t60 -79q60 105 179 105q101 0 158.5 -73t57.5 -186v-19zM476 272h293q-1 63 -38 112t-109 49q-66 0 -104.5 -49.5t-41.5 -111.5zM401 180v12q-52 61 -145 61q-59 0 -95 -27.5t-36 -73.5q0 -45 36 -72.5t95 -27.5q62 0 103.5 39t41.5 89z " />
<glyph unicode="&#x1fe;" horiz-adv-x="765" d="M552 867l-169 -144h-57l148 144h78zM382 -12q-97 0 -173 45l-22 -33h-66l44 65q-114 98 -114 268q0 149 92 247t239 98q92 0 167 -42l21 31h66l-42 -62q57 -47 88 -117.5t31 -154.5q0 -149 -92.5 -247t-238.5 -98zM382 62q110 0 177.5 76.5t67.5 194.5q0 130 -78 205 l-297 -441q55 -35 130 -35zM137 333q0 -126 73 -201l296 440q-56 32 -124 32q-111 0 -178 -76t-67 -195z" />
<glyph unicode="&#x1ff;" d="M455 700l-169 -144h-57l148 144h78zM118 0h-54l48 61q-65 71 -65 181q0 108 65.5 180.5t173.5 72.5q79 0 137 -41l23 29h54l-45 -57q70 -72 70 -184q0 -108 -65.5 -181t-173.5 -73q-83 0 -142 45zM286 55q74 0 117 54.5t43 132.5q0 73 -38 125l-220 -278q42 -34 98 -34z M125 242q0 -70 34 -121l219 277q-38 30 -92 30q-74 0 -117.5 -54.5t-43.5 -131.5z" />
<glyph unicode="&#x218;" horiz-adv-x="586" d="M345 -138q0 -39 -20 -75t-51 -59l-33 26q23 15 39.5 39.5t18.5 46.5q-2 -2 -11 -2q-18 0 -30 12.5t-12 31.5q0 20 13.5 33.5t32.5 13.5q22 0 37.5 -18t15.5 -49zM294 -12q-162 0 -256 106l49 63q85 -95 210 -95q81 0 119 34.5t38 80.5q0 35 -22 59t-56.5 37.5t-77 24.5 t-84.5 24.5t-76.5 32.5t-56.5 54t-22 83q0 82 65 133.5t164 51.5q149 0 237 -93l-50 -61q-73 80 -193 80q-60 0 -98.5 -29.5t-38.5 -76.5q0 -35 29.5 -58t73 -34t95 -27.5t95 -35t73 -59.5t29.5 -99q0 -82 -60.5 -139t-185.5 -57z" />
<glyph unicode="&#x219;" horiz-adv-x="465" d="M291 -138q0 -39 -20 -75t-51 -59l-33 26q23 15 39.5 39.5t18.5 46.5q-2 -2 -11 -2q-18 0 -30 12.5t-12 31.5q0 20 13.5 33.5t32.5 13.5q22 0 37.5 -18t15.5 -49zM228 -12q-123 0 -195 76l39 54q25 -29 68.5 -49t90.5 -20q54 0 84 23t30 60q0 32 -31 50.5t-74.5 28 t-87.5 22t-75 43t-31 80.5q0 59 48.5 99t131.5 40q109 0 179 -70l-35 -52q-51 61 -144 61q-49 0 -78 -21.5t-29 -54.5q0 -29 31 -45.5t74.5 -26t87.5 -22.5t75 -45.5t31 -84.5q0 -64 -50 -105t-140 -41z" />
<glyph unicode="&#x21a;" horiz-adv-x="570" d="M341 -138q0 -39 -20 -75t-51 -59l-33 26q23 15 39.5 39.5t18.5 46.5q-2 -2 -11 -2q-18 0 -30 12.5t-12 31.5q0 20 13.5 33.5t32.5 13.5q22 0 37.5 -18t15.5 -49zM326 0h-83v593h-211v74h506v-74h-212v-593z" />
<glyph unicode="&#x21b;" horiz-adv-x="294" d="M203 -138q0 -39 -20 -75t-51 -59l-33 26q23 15 39.5 39.5t18.5 46.5q-2 -2 -11 -2q-18 0 -30 12.5t-12 31.5q0 20 13.5 33.5t32.5 13.5q22 0 37.5 -18t15.5 -49zM197 -12q-53 0 -80 29t-27 84v316h-80v66h80v132h75v-132h98v-66h-98v-300q0 -28 12.5 -45t36.5 -17 q33 0 51 20l22 -56q-33 -31 -90 -31z" />
<glyph unicode="&#x237;" horiz-adv-x="225" d="M7 -196q-59 0 -106 36l27 57q31 -31 69 -31q36 0 57 21.5t21 65.5v530h75v-530q0 -71 -37 -110t-106 -39z" />
<glyph unicode="&#x2b0;" horiz-adv-x="398" d="M338 326h-58v202q0 72 -71 72q-54 0 -92 -46v-228h-57v434h57v-165q47 53 116 53q105 0 105 -107v-215z" />
<glyph unicode="&#x2bc;" horiz-adv-x="230" d="M176 601q0 -44 -23 -84.5t-59 -66.5l-37 31q24 16 43 42.5t22 50.5q-4 -2 -14 -2q-21 0 -34.5 14.5t-13.5 36.5t15.5 38t37.5 16q26 0 44.5 -20.5t18.5 -55.5z" />
<glyph unicode="&#x2c6;" horiz-adv-x="265" d="M265 556h-51l-83 106l-80 -106h-51l95 144h72z" />
<glyph unicode="&#x2c7;" horiz-adv-x="265" d="M170 556h-72l-98 144h51l83 -106l80 106h51z" />
<glyph unicode="&#x2c9;" horiz-adv-x="363" d="M363 591h-363v48h363v-48z" />
<glyph unicode="&#x2cb;" horiz-adv-x="226" d="M226 556h-57l-169 144h78z" />
<glyph unicode="&#x2d8;" horiz-adv-x="351" d="M351 626q-65 -88 -175 -88q-109 0 -176 88l37 32q52 -72 139 -72q88 0 138 72z" />
<glyph unicode="&#x2d9;" horiz-adv-x="111" d="M56 555q-19 0 -33 14t-14 33t14 33t33 14t32.5 -13.5t13.5 -33.5t-13.5 -33.5t-32.5 -13.5z" />
<glyph unicode="&#x2da;" horiz-adv-x="196" d="M98 543q-40 0 -69 28.5t-29 69.5t29 70t69 29t69 -29t29 -70t-29 -69.5t-69 -28.5zM98 582q24 0 41 17.5t17 41.5q0 25 -16.5 42t-41.5 17q-24 0 -41 -17t-17 -42q0 -24 17 -41.5t41 -17.5z" />
<glyph unicode="&#x2db;" horiz-adv-x="178" d="M141 -105l37 -21q-26 -60 -89 -60q-38 0 -63.5 22t-25.5 65q0 37 24 69t64 53l33 -23q-76 -38 -76 -97q0 -50 44 -50q38 0 52 42z" />
<glyph unicode="&#x2dc;" horiz-adv-x="313" d="M216 554q-25 0 -43.5 14.5t-27.5 31.5t-22.5 31.5t-29.5 14.5q-21 0 -34.5 -21.5t-13.5 -64.5h-45q0 60 25.5 97t71.5 37q24 0 42.5 -14.5t28 -31.5t23 -31.5t29.5 -14.5q21 0 34.5 21.5t13.5 64.5h45q0 -60 -25.5 -97t-71.5 -37z" />
<glyph unicode="&#x2dd;" horiz-adv-x="305" d="M163 700l-115 -144h-48l94 144h69zM305 700l-115 -144h-48l94 144h69z" />
<glyph unicode="&#x309;" horiz-adv-x="178" d="M48 726l-33 9q18 55 73 55q31 0 51.5 -17.5t20.5 -51.5q0 -28 -19 -54h-40q23 23 23 52q0 39 -36 39q-29 0 -40 -32z" />
<glyph unicode="&#x37e;" horiz-adv-x="230" d="M115 380q-22 0 -38.5 16.5t-16.5 38.5q0 23 16 39t39 16t39 -16t16 -39q0 -22 -16.5 -38.5t-38.5 -16.5zM176 26q0 -45 -23 -85.5t-59 -65.5l-37 30q24 16 43 43t22 51q-6 -3 -14 -3q-21 0 -34.5 14.5t-13.5 36.5q0 23 15.5 39t37.5 16q26 0 44.5 -20.5t18.5 -55.5z" />
<glyph unicode="&#x384;" horiz-adv-x="199" d="M137 565h-37l19 200h76z" />
<glyph unicode="&#x385;" horiz-adv-x="551" d="M281 565h-38l19 200h76zM456 604q0 -19 -13.5 -33t-32.5 -14t-32.5 13.5t-13.5 33.5q0 19 13.5 32.5t32.5 13.5t32.5 -13.5t13.5 -32.5zM187 604q0 -19 -13.5 -33t-32.5 -14t-32.5 13.5t-13.5 33.5q0 19 13.5 32.5t32.5 13.5t32.5 -13.5t13.5 -32.5z" />
<glyph unicode="&#x386;" horiz-adv-x="658" d="M182 565h-37l19 200h76zM649 0h-95l-59 148h-332l-59 -148h-95l268 667h103zM470 222l-141 359l-142 -359h283z" />
<glyph unicode="&#x388;" horiz-adv-x="586" d="M24 565h-37l19 200h76zM532 0h-437v667h437v-74h-354v-215h347v-74h-347v-230h354v-74z" />
<glyph unicode="&#x389;" horiz-adv-x="729" d="M24 565h-37l19 200h76zM651 0h-83v306h-390v-306h-83v667h83v-287h390v287h83v-667z" />
<glyph unicode="&#x38a;" horiz-adv-x="255" d="M24 565h-37l19 200h76zM178 0h-83v667h83v-667z" />
<glyph unicode="&#x38c;" horiz-adv-x="765" d="M59 565h-37l19 200h76zM382 -12q-147 0 -239 98t-92 247t92 247t239 98q146 0 238.5 -98t92.5 -247t-92.5 -247t-238.5 -98zM382 62q110 0 177.5 76.5t67.5 194.5q0 119 -67.5 195t-177.5 76q-111 0 -178 -76t-67 -195q0 -118 67 -194.5t178 -76.5z" />
<glyph unicode="&#x38e;" horiz-adv-x="684" d="M24 565h-37l19 200h76zM413 0h-83v282l-263 385h97l207 -310l207 310h97l-262 -385v-282z" />
<glyph unicode="&#x38f;" horiz-adv-x="769" d="M59 565h-37l19 200h76zM73 74h135q-153 92 -153 274q0 145 92 237.5t239 92.5q148 0 239.5 -92.5t91.5 -237.5q0 -182 -151 -274h134v-74h-240v74q71 18 121 87t50 173q0 115 -65 192t-180 77t-180 -77t-65 -192q0 -104 50.5 -173t121.5 -87v-74h-240v74z" />
<glyph unicode="&#x390;" horiz-adv-x="239" d="M125 565h-38l19 200h76zM300 604q0 -19 -13.5 -33t-32.5 -14t-32.5 13.5t-13.5 33.5q0 19 13.5 32.5t32.5 13.5t32.5 -13.5t13.5 -32.5zM31 604q0 -19 -13.5 -33t-32.5 -14t-32.5 13.5t-13.5 33.5q0 19 13.5 32.5t32.5 13.5t32.5 -13.5t13.5 -32.5zM182 -12q-53 0 -80 29 t-27 84v382h75v-370q0 -58 47 -58q11 0 19 2l6 -65q-22 -4 -40 -4z" />
<glyph unicode="&#x391;" horiz-adv-x="658" d="M649 0h-95l-59 148h-332l-59 -148h-95l268 667h103zM470 222l-141 359l-142 -359h283z" />
<glyph unicode="&#x392;" horiz-adv-x="629" d="M382 0h-304v667h297q86 0 136.5 -47t50.5 -123q0 -60 -34 -101.5t-83 -51.5q53 -8 91.5 -56t38.5 -108q0 -81 -51.5 -130.5t-141.5 -49.5zM361 378q55 0 85 30t30 77t-30.5 77.5t-84.5 30.5h-200v-215h200zM365 74q58 0 91 31t33 84q0 49 -32.5 82t-91.5 33h-204v-230 h204z" />
<glyph unicode="&#x393;" horiz-adv-x="550" d="M161 0h-83v667h437v-74h-354v-593z" />
<glyph unicode="&#x394;" horiz-adv-x="658" d="M649 0h-640l268 667h103zM530 74l-201 507l-201 -507h402z" />
<glyph unicode="&#x395;" horiz-adv-x="569" d="M515 0h-437v667h437v-74h-354v-215h347v-74h-347v-230h354v-74z" />
<glyph unicode="&#x396;" horiz-adv-x="585" d="M536 0h-488v69l375 524h-375v74h481v-69l-375 -524h382v-74z" />
<glyph unicode="&#x397;" horiz-adv-x="712" d="M634 0h-83v306h-390v-306h-83v667h83v-287h390v287h83v-667z" />
<glyph unicode="&#x398;" horiz-adv-x="765" d="M569 304h-373v74h373v-74zM382 -12q-147 0 -239 98t-92 247t92 247t239 98q146 0 238.5 -98t92.5 -247t-92.5 -247t-238.5 -98zM382 62q110 0 177.5 76.5t67.5 194.5q0 119 -67.5 195t-177.5 76q-111 0 -178 -76t-67 -195q0 -118 67 -194.5t178 -76.5z" />
<glyph unicode="&#x399;" horiz-adv-x="239" d="M161 0h-83v667h83v-667z" />
<glyph unicode="&#x39a;" horiz-adv-x="601" d="M584 0h-103l-253 300l-67 -76v-224h-83v667h83v-345l295 345h104l-278 -317z" />
<glyph unicode="&#x39b;" horiz-adv-x="658" d="M649 0h-95l-225 581l-225 -581h-95l268 667h103z" />
<glyph unicode="&#x39c;" horiz-adv-x="809" d="M731 0h-83v549l-227 -549h-34l-226 549v-549h-83v667h119l207 -502l208 502h119v-667z" />
<glyph unicode="&#x39d;" horiz-adv-x="708" d="M630 0h-80l-389 532v-532h-83v667h85l384 -521v521h83v-667z" />
<glyph unicode="&#x39e;" horiz-adv-x="615" d="M560 593h-505v74h505v-74zM560 0h-506v74h506v-74zM554 304h-492v74h492v-74z" />
<glyph unicode="&#x39f;" horiz-adv-x="765" d="M382 -12q-147 0 -239 98t-92 247t92 247t239 98q146 0 238.5 -98t92.5 -247t-92.5 -247t-238.5 -98zM382 62q110 0 177.5 76.5t67.5 194.5q0 119 -67.5 195t-177.5 76q-111 0 -178 -76t-67 -195q0 -118 67 -194.5t178 -76.5z" />
<glyph unicode="&#x3a0;" horiz-adv-x="712" d="M634 0h-83v593h-390v-593h-83v667h556v-667z" />
<glyph unicode="&#x3a1;" horiz-adv-x="587" d="M161 0h-83v667h268q97 0 153 -58t56 -143t-56.5 -143t-152.5 -58h-185v-265zM336 339q59 0 96 35.5t37 91.5t-37 91.5t-96 35.5h-175v-254h175z" />
<glyph unicode="&#x3a3;" horiz-adv-x="575" d="M157 593l229 -250l-232 -269h367v-74h-467v74l231 268l-230 251v74h466v-74h-364z" />
<glyph unicode="&#x3a4;" horiz-adv-x="570" d="M326 0h-83v593h-211v74h506v-74h-212v-593z" />
<glyph unicode="&#x3a5;" horiz-adv-x="626" d="M355 0h-83v282l-263 385h97l207 -310l207 310h97l-262 -385v-282z" />
<glyph unicode="&#x3a6;" horiz-adv-x="806" d="M444 0h-83v65q-144 10 -227 82t-83 186q0 113 83 185t227 82v67h83v-67q143 -10 227 -82.5t84 -184.5q0 -114 -83.5 -186t-227.5 -82v-65zM669 333q0 80 -60 132t-165 61v-386q105 9 165 61t60 132zM137 333q0 -80 59.5 -132t164.5 -61v386q-105 -9 -164.5 -61 t-59.5 -132z" />
<glyph unicode="&#x3a7;" horiz-adv-x="652" d="M639 0h-100l-213 284l-213 -284h-101l260 342l-245 325h101l198 -267l197 267h101l-244 -324z" />
<glyph unicode="&#x3a8;" horiz-adv-x="796" d="M440 0h-83v125q-137 10 -208 81.5t-71 188.5v272h83v-270q0 -86 50 -137t146 -61v468h83v-467q94 9 144 60.5t50 136.5v270h84v-271q0 -118 -71 -189.5t-207 -81.5v-125z" />
<glyph unicode="&#x3a9;" horiz-adv-x="765" d="M69 74h135q-153 92 -153 274q0 145 92 237.5t239 92.5q148 0 239.5 -92.5t91.5 -237.5q0 -182 -151 -274h134v-74h-240v74q71 18 121 87t50 173q0 115 -65 192t-180 77t-180 -77t-65 -192q0 -104 50.5 -173t121.5 -87v-74h-240v74z" />
<glyph unicode="&#x3aa;" horiz-adv-x="239" d="M161 0h-83v667h83v-667zM269 788q0 -19 -14 -33t-33 -14t-33 14t-14 33t14 32.5t33 13.5t33 -13.5t14 -32.5zM62 788q0 -19 -13.5 -33t-32.5 -14q-20 0 -33.5 13.5t-13.5 33.5q0 19 14 32.5t33 13.5t32.5 -13.5t13.5 -32.5z" />
<glyph unicode="&#x3ab;" horiz-adv-x="626" d="M355 0h-83v282l-263 385h97l207 -310l207 310h97l-262 -385v-282zM463 788q0 -19 -14 -33t-33 -14t-33 14t-14 33t14 32.5t33 13.5t33 -13.5t14 -32.5zM256 788q0 -19 -13.5 -33t-32.5 -14q-20 0 -33.5 13.5t-13.5 33.5q0 19 14 32.5t33 13.5t32.5 -13.5t13.5 -32.5z" />
<glyph unicode="&#x3ac;" horiz-adv-x="589" d="M303 565h-37l19 200h76zM566 57l5 -65q-20 -4 -39 -4q-91 0 -104 89q-26 -39 -70.5 -64t-95.5 -25q-96 0 -155.5 68.5t-59.5 184.5q0 115 59.5 184.5t155.5 69.5q101 0 162 -85v73h76v-370q0 -27 12 -42.5t34 -15.5q10 0 20 2zM280 55q44 0 84 22t61 54v219 q-21 33 -61.5 55.5t-83.5 22.5q-71 0 -113 -52.5t-42 -134.5t42 -134t113 -52z" />
<glyph unicode="&#x3ad;" horiz-adv-x="514" d="M265 565h-37l19 200h76zM268 -12q-102 0 -161.5 39.5t-59.5 101.5q0 54 44.5 84t95.5 34q-49 6 -89.5 37t-40.5 81q0 61 61.5 95.5t160.5 33.5q123 0 198 -77l-39 -46q-61 62 -162 62q-61 0 -101 -21.5t-40 -55.5q0 -40 40 -60.5t103 -20.5h108v-61h-108q-152 0 -152 -80 q0 -38 38.5 -61t103.5 -23q113 0 181 65l37 -48q-79 -79 -218 -79z" />
<glyph unicode="&#x3ae;" horiz-adv-x="551" d="M284 565h-37l19 200h76zM476 -184h-75v500q0 61 -28 86.5t-80 25.5q-42 0 -81.5 -22t-61.5 -53v-353h-75v483h75v-70q28 33 75 57.5t97 24.5q154 0 154 -156v-523z" />
<glyph unicode="&#x3af;" horiz-adv-x="239" d="M129 565h-37l19 200h76zM182 -12q-53 0 -80 29t-27 84v382h75v-370q0 -58 47 -58q11 0 19 2l6 -65q-22 -4 -40 -4z" />
<glyph unicode="&#x3b0;" horiz-adv-x="562" d="M286 565h-38l19 200h76zM461 604q0 -19 -13.5 -33t-32.5 -14t-32.5 13.5t-13.5 33.5q0 19 13.5 32.5t32.5 13.5t32.5 -13.5t13.5 -32.5zM192 604q0 -19 -13.5 -33t-32.5 -14t-32.5 13.5t-13.5 33.5q0 19 13.5 32.5t32.5 13.5t32.5 -13.5t13.5 -32.5zM275 -12 q-98 0 -149 60t-51 164v271h75v-270q0 -74 33 -116t92 -42q75 0 118 55.5t43 139.5q0 126 -73 211l67 34q85 -107 85 -245q0 -114 -65.5 -188t-174.5 -74z" />
<glyph unicode="&#x3b1;" horiz-adv-x="589" d="M566 57l5 -65q-20 -4 -39 -4q-91 0 -104 89q-26 -39 -70.5 -64t-95.5 -25q-96 0 -155.5 68.5t-59.5 184.5q0 115 59.5 184.5t155.5 69.5q101 0 162 -85v73h76v-370q0 -27 12 -42.5t34 -15.5q10 0 20 2zM280 55q44 0 84 22t61 54v219q-21 33 -61.5 55.5t-83.5 22.5 q-71 0 -113 -52.5t-42 -134.5t42 -134t113 -52z" />
<glyph unicode="&#x3b2;" horiz-adv-x="575" d="M150 455v-324q22 -33 62.5 -54.5t86.5 -21.5q72 0 111.5 35t39.5 94q0 61 -44 92.5t-113 31.5h-35v67h33q63 0 103 30t40 87q0 54 -37.5 86t-93.5 32q-65 0 -109 -40.5t-44 -114.5zM150 72v-256h-75v639q0 109 67 165.5t161 56.5q92 0 151 -47.5t59 -130.5 q0 -66 -42.5 -105.5t-96.5 -49.5q55 -5 104.5 -49t49.5 -122q0 -82 -59 -133.5t-148 -51.5q-109 0 -171 84z" />
<glyph unicode="&#x3b3;" horiz-adv-x="490" d="M283 -184h-75v135q0 151 -60.5 295t-154.5 237h88q66 -66 117 -179t62 -211q55 77 91 184t36 206h75q0 -116 -49 -245t-130 -233v-189z" />
<glyph unicode="&#x3b4;" d="M289 -12q-108 0 -175 70t-67 165q0 74 38.5 128t102.5 81q-82 36 -82 108q0 59 48 99t131 40q111 0 179 -70l-35 -52q-51 61 -144 61q-49 0 -78 -21.5t-29 -54.5q0 -22 19 -37.5t49.5 -25.5t68 -21t74.5 -28.5t67.5 -42t49.5 -67.5t19 -100q0 -93 -65 -162.5t-171 -69.5z M452 220q0 43 -14.5 74t-45 52t-55 31.5t-67.5 24.5q-71 -21 -108 -68t-37 -111q0 -65 44.5 -116.5t117.5 -51.5q74 0 119.5 51t45.5 114z" />
<glyph unicode="&#x3b5;" horiz-adv-x="514" d="M268 -12q-102 0 -161.5 39.5t-59.5 101.5q0 54 44.5 84t95.5 34q-49 6 -89.5 37t-40.5 81q0 61 61.5 95.5t160.5 33.5q123 0 198 -77l-39 -46q-61 62 -162 62q-61 0 -101 -21.5t-40 -55.5q0 -40 40 -60.5t103 -20.5h108v-61h-108q-152 0 -152 -80q0 -38 38.5 -61 t103.5 -23q113 0 181 65l37 -48q-79 -79 -218 -79z" />
<glyph unicode="&#x3b6;" horiz-adv-x="489" d="M371 -48q0 20 -13 28t-44 8q-120 0 -193.5 60t-73.5 163q0 227 300 390h-284v66h382v-57q-320 -184 -320 -394q0 -77 53.5 -119t144.5 -42q67 0 97 -21t30 -68q0 -46 -44 -123h-81q46 71 46 109z" />
<glyph unicode="&#x3b7;" horiz-adv-x="551" d="M476 -184h-75v500q0 61 -28 86.5t-80 25.5q-42 0 -81.5 -22t-61.5 -53v-353h-75v483h75v-70q28 33 75 57.5t97 24.5q154 0 154 -156v-523z" />
<glyph unicode="&#x3b8;" d="M286 -12q-116 0 -177.5 97.5t-61.5 248.5t61.5 248t177.5 97t177.5 -97t61.5 -248t-61.5 -248.5t-177.5 -97.5zM286 55q150 0 159 247h-319q5 -114 43.5 -180.5t116.5 -66.5zM286 612q-77 0 -116 -66.5t-44 -177.5h319q-5 112 -43.5 178t-115.5 66z" />
<glyph unicode="&#x3b9;" horiz-adv-x="239" d="M182 -12q-53 0 -80 29t-27 84v382h75v-370q0 -58 47 -58q11 0 19 2l6 -65q-22 -4 -40 -4z" />
<glyph unicode="&#x3ba;" horiz-adv-x="514" d="M500 0h-96l-174 217l-80 -79v-138h-75v483h75v-257l254 257h95l-214 -219z" />
<glyph unicode="&#x3bb;" horiz-adv-x="490" d="M60 604l-12 67q22 8 55 8q102 -2 142 -98l242 -581h-82l-160 396l-161 -396h-81l202 487l-32 73q-12 29 -29 40.5t-43 11.5q-23 0 -41 -8z" />
<glyph unicode="&#x3bc;" horiz-adv-x="565" d="M150 36v-220h-75v667h75v-318q0 -112 110 -112q41 0 80 22t61 53v355h75v-370q0 -58 47 -58q11 0 19 2l6 -65q-22 -4 -40 -4q-88 0 -104 86q-27 -37 -68 -61.5t-85 -24.5q-75 0 -101 48z" />
<glyph unicode="&#x3bd;" horiz-adv-x="490" d="M279 0h-75l-201 483h81l164 -407q64 89 101.5 197t37.5 210h75q0 -117 -50 -248t-133 -235z" />
<glyph unicode="&#x3be;" horiz-adv-x="489" d="M314 -12q-128 0 -197.5 48.5t-69.5 135.5q0 69 42.5 110t94.5 51q-48 8 -87.5 41t-39.5 89q0 44 31 82.5t77 55.5h-100v66h371v-66h-187q-49 -11 -81 -45.5t-32 -74.5q0 -51 43.5 -78.5t108.5 -27.5h143v-65h-143q-73 0 -118 -31.5t-45 -94.5q0 -62 52 -95.5t146 -33.5 q67 0 97 -21t30 -68q0 -46 -44 -123h-81q46 71 46 109q0 20 -13 28t-44 8z" />
<glyph unicode="&#x3bf;" d="M286 -12q-108 0 -173.5 73t-65.5 181t65.5 180.5t173.5 72.5t173.5 -72.5t65.5 -180.5t-65.5 -181t-173.5 -73zM286 55q74 0 117 54.5t43 132.5t-43 132t-117 54t-117.5 -54.5t-43.5 -131.5q0 -78 43.5 -132.5t117.5 -54.5z" />
<glyph unicode="&#x3c0;" horiz-adv-x="582" d="M492 0h-75v417h-252v-417h-75v417h-80v66h562v-66h-80v-417z" />
<glyph unicode="&#x3c1;" d="M313 -12q-102 0 -163 85v-257h-75v426q0 108 61.5 180.5t163.5 72.5q103 0 165.5 -72.5t62.5 -180.5q0 -116 -59.5 -185t-155.5 -69zM294 55q71 0 113 52.5t42 134.5q0 78 -40 132t-110 54q-69 0 -109 -54t-40 -132v-109q20 -33 60.5 -55.5t83.5 -22.5z" />
<glyph unicode="&#x3c2;" horiz-adv-x="483" d="M316 -12q-122 0 -195.5 68t-73.5 186q0 109 67 181t174 72q112 0 177 -84l-50 -46q-46 63 -123 63q-76 0 -121.5 -52t-45.5 -134q0 -91 53 -139t142 -48q67 0 98.5 -21t31.5 -68q0 -45 -43 -123h-78q46 71 46 109q0 36 -59 36z" />
<glyph unicode="&#x3c3;" d="M520 225q0 -100 -63.5 -168.5t-170.5 -68.5q-108 0 -173.5 73t-65.5 181q0 103 68 172t184 69h248v-67h-115q88 -69 88 -191zM446 236q0 62 -27.5 109.5t-72.5 70.5h-47q-82 0 -128 -51.5t-46 -122.5q0 -78 43.5 -132.5t117.5 -54.5t117 53.5t43 127.5z" />
<glyph unicode="&#x3c4;" horiz-adv-x="468" d="M303 -12q-53 0 -80 29t-27 84v316h-170v66h416v-66h-171v-300q0 -28 12.5 -45t36.5 -17q33 0 51 20l22 -56q-33 -31 -90 -31z" />
<glyph unicode="&#x3c5;" horiz-adv-x="562" d="M275 -12q-98 0 -149 60t-51 164v271h75v-270q0 -74 33 -116t92 -42q75 0 118 55.5t43 139.5q0 126 -73 211l67 34q85 -107 85 -245q0 -114 -65.5 -188t-174.5 -74z" />
<glyph unicode="&#x3c6;" horiz-adv-x="744" d="M696 242q0 -109 -73 -177t-214 -76v-173h-75v174q-142 8 -214.5 77.5t-72.5 186.5q0 83 50 144t129 97l32 -58q-133 -65 -133 -183q0 -84 50.5 -136.5t158.5 -61.5v439h38q160 0 242 -68.5t82 -184.5zM618 242q0 79 -53 129.5t-156 55.5v-371q107 8 158 58.5t51 127.5z " />
<glyph unicode="&#x3c7;" horiz-adv-x="486" d="M475 -184h-84l-148 273l-148 -273h-83l185 343l-175 324h84l137 -254l137 254h84l-175 -324z" />
<glyph unicode="&#x3c8;" horiz-adv-x="744" d="M409 -184h-75v173q-127 8 -193 69.5t-66 163.5v261h75v-261q0 -72 48 -114.5t136 -50.5v610h75v-611q87 8 136 51t49 115v261h75v-261q0 -103 -66.5 -164t-193.5 -69v-173z" />
<glyph unicode="&#x3c9;" horiz-adv-x="808" d="M760 242q0 -108 -52 -181t-137 -73q-66 0 -108 43t-59 104q-18 -62 -60 -104.5t-107 -42.5q-86 0 -138 73t-52 181q0 172 98 253l54 -46q-74 -69 -74 -207q0 -78 32.5 -132.5t88.5 -54.5t88 54.5t32 132.5v123h75v-123q0 -78 32 -132.5t88 -54.5t88.5 54.5t32.5 132.5 q0 139 -74 207l55 46q97 -80 97 -253z" />
<glyph unicode="&#x3ca;" horiz-adv-x="239" d="M270 604q0 -19 -14 -33t-33 -14t-33 14t-14 33t14 32.5t33 13.5t33 -13.5t14 -32.5zM63 604q0 -19 -13.5 -33t-32.5 -14t-33 13.5t-14 33.5q0 19 14 32.5t33 13.5t32.5 -13.5t13.5 -32.5zM182 -12q-53 0 -80 29t-27 84v382h75v-370q0 -58 47 -58q11 0 19 2l6 -65 q-22 -4 -40 -4z" />
<glyph unicode="&#x3cb;" horiz-adv-x="562" d="M430 604q0 -19 -14 -33t-33 -14t-33 14t-14 33t14 32.5t33 13.5t33 -13.5t14 -32.5zM223 604q0 -19 -13.5 -33t-32.5 -14t-33 13.5t-14 33.5q0 19 14 32.5t33 13.5t32.5 -13.5t13.5 -32.5zM275 -12q-98 0 -149 60t-51 164v271h75v-270q0 -74 33 -116t92 -42 q75 0 118 55.5t43 139.5q0 126 -73 211l67 34q85 -107 85 -245q0 -114 -65.5 -188t-174.5 -74z" />
<glyph unicode="&#x3cc;" d="M294 565h-37l19 200h76zM286 -12q-108 0 -173.5 73t-65.5 181t65.5 180.5t173.5 72.5t173.5 -72.5t65.5 -180.5t-65.5 -181t-173.5 -73zM286 55q74 0 117 54.5t43 132.5t-43 132t-117 54t-117.5 -54.5t-43.5 -131.5q0 -78 43.5 -132.5t117.5 -54.5z" />
<glyph unicode="&#x3cd;" horiz-adv-x="562" d="M290 565h-37l19 200h76zM275 -12q-98 0 -149 60t-51 164v271h75v-270q0 -74 33 -116t92 -42q75 0 118 55.5t43 139.5q0 126 -73 211l67 34q85 -107 85 -245q0 -114 -65.5 -188t-174.5 -74z" />
<glyph unicode="&#x3ce;" horiz-adv-x="808" d="M412 565h-37l19 200h76zM760 242q0 -108 -52 -181t-137 -73q-66 0 -108 43t-59 104q-18 -62 -60 -104.5t-107 -42.5q-86 0 -138 73t-52 181q0 172 98 253l54 -46q-74 -69 -74 -207q0 -78 32.5 -132.5t88.5 -54.5t88 54.5t32 132.5v123h75v-123q0 -78 32 -132.5t88 -54.5 t88.5 54.5t32.5 132.5q0 139 -74 207l55 46q97 -80 97 -253z" />
<glyph unicode="&#x401;" horiz-adv-x="569" d="M446 771q0 -19 -14 -33t-33 -14t-33 14t-14 33t14 32.5t33 13.5t33 -13.5t14 -32.5zM239 771q0 -19 -13.5 -33t-32.5 -14t-33 14t-14 33t14 32.5t33 13.5t32.5 -13.5t13.5 -32.5zM515 0h-437v667h437v-74h-354v-215h347v-74h-347v-230h354v-74z" />
<glyph unicode="&#x402;" horiz-adv-x="769" d="M501 -12v74q62 0 98 37t36 101v8q0 72 -39.5 109.5t-115.5 37.5q-83 0 -154 -23v-332h-83v593h-211v74h506v-74h-212v-187q84 23 161 23q113 0 172 -61t59 -160v-8q0 -104 -61 -158t-156 -54z" />
<glyph unicode="&#x403;" horiz-adv-x="550" d="M454 867l-169 -144h-57l148 144h78zM161 0h-83v667h437v-74h-354v-593z" />
<glyph unicode="&#x404;" horiz-adv-x="676" d="M394 -12q-146 0 -244.5 96.5t-98.5 248.5t98.5 248.5t244.5 96.5q160 0 253 -132l-70 -39q-29 43 -78 70t-105 27q-99 0 -169.5 -62.5t-84.5 -163.5h365v-74h-367q10 -107 81.5 -174.5t174.5 -67.5q56 0 105 26.5t78 70.5l71 -39q-97 -132 -254 -132z" />
<glyph unicode="&#x405;" horiz-adv-x="586" d="M294 -12q-162 0 -256 106l49 63q85 -95 210 -95q81 0 119 34.5t38 80.5q0 35 -22 59t-56.5 37.5t-77 24.5t-84.5 24.5t-76.5 32.5t-56.5 54t-22 83q0 82 65 133.5t164 51.5q149 0 237 -93l-50 -61q-73 80 -193 80q-60 0 -98.5 -29.5t-38.5 -76.5q0 -35 29.5 -58t73 -34 t95 -27.5t95 -35t73 -59.5t29.5 -99q0 -82 -60.5 -139t-185.5 -57z" />
<glyph unicode="&#x406;" horiz-adv-x="239" d="M161 0h-83v667h83v-667z" />
<glyph unicode="&#x407;" horiz-adv-x="239" d="M161 0h-83v667h83v-667zM269 771q0 -19 -14 -33t-33 -14t-33 14t-14 33t14 32.5t33 13.5t33 -13.5t14 -32.5zM62 771q0 -19 -13.5 -33t-32.5 -14q-20 0 -33.5 14t-13.5 33t14 32.5t33 13.5t32.5 -13.5t13.5 -32.5z" />
<glyph unicode="&#x408;" horiz-adv-x="475" d="M185 -12q-108 0 -174 77l43 63q55 -66 126 -66q61 0 97.5 38.5t36.5 101.5v465h83v-466q0 -104 -59 -158.5t-153 -54.5z" />
<glyph unicode="&#x409;" horiz-adv-x="1060" d="M32 -12v74q43 0 70 20t48 79.5t35 170.5l41 335h408v-265h185q96 0 152.5 -58t56.5 -143t-56 -143t-153 -58h-268v593h-251l-33 -267q-13 -107 -34.5 -176t-53 -103.5t-65 -46.5t-82.5 -12zM809 328h-175v-254h175q59 0 96 35.5t37 91.5t-37 91.5t-96 35.5z" />
<glyph unicode="&#x40a;" horiz-adv-x="1060" d="M78 0v667h83v-287h390v287h83v-287h197q91 0 144 -55t53 -135q0 -81 -53 -135.5t-144 -54.5h-280v306h-390v-306h-83zM634 74h187q54 0 87.5 32t33.5 84q0 51 -33.5 83.5t-87.5 32.5h-187v-232z" />
<glyph unicode="&#x40b;" horiz-adv-x="785" d="M635 0v201q0 154 -155 154q-83 0 -154 -23v-332h-83v593h-211v74h506v-74h-212v-187q84 23 161 23q114 0 172.5 -61.5t58.5 -167.5v-200h-83z" />
<glyph unicode="&#x40c;" horiz-adv-x="601" d="M473 867l-169 -144h-57l148 144h78zM584 0h-103l-253 300l-67 -76v-224h-83v667h83v-345l295 345h104l-278 -317z" />
<glyph unicode="&#x40e;" horiz-adv-x="626" d="M145 -12q-41 0 -76 15t-54 38l35 66q43 -45 91 -45q38 0 60.5 20t51.5 75l12 23l-256 487h95l209 -413l209 413h95l-291 -549q-35 -66 -75 -98t-106 -32zM489 793q-65 -88 -175 -88q-109 0 -176 88l37 32q52 -72 139 -72q88 0 138 72z" />
<glyph unicode="&#x40f;" horiz-adv-x="712" d="M78 0v667h83v-593h390v593h83v-667h-236v-127h-83v127h-237z" />
<glyph unicode="&#x410;" horiz-adv-x="658" d="M649 0h-95l-59 148h-332l-59 -148h-95l268 667h103zM470 222l-141 359l-142 -359h283z" />
<glyph unicode="&#x411;" horiz-adv-x="587" d="M78 667h433v-74h-350v-191h185q96 0 152.5 -58t56.5 -143t-56 -143t-153 -58h-268v667zM336 328h-175v-254h175q59 0 96 35.5t37 91.5t-37 91.5t-96 35.5z" />
<glyph unicode="&#x412;" horiz-adv-x="629" d="M382 0h-304v667h297q86 0 136.5 -47t50.5 -123q0 -60 -34 -101.5t-83 -51.5q53 -8 91.5 -56t38.5 -108q0 -81 -51.5 -130.5t-141.5 -49.5zM361 378q55 0 85 30t30 77t-30.5 77.5t-84.5 30.5h-200v-215h200zM365 74q58 0 91 31t33 84q0 49 -32.5 82t-91.5 33h-204v-230 h204z" />
<glyph unicode="&#x413;" horiz-adv-x="550" d="M161 0h-83v667h437v-74h-354v-593z" />
<glyph unicode="&#x414;" horiz-adv-x="723" d="M32 -123v190q44 3 70 21t47.5 76t35.5 168l41 335h408v-593h61v-197h-83v123h-497v-123h-83zM267 326q-23 -193 -102 -252h386v519h-251z" />
<glyph unicode="&#x415;" horiz-adv-x="569" d="M515 0h-437v667h437v-74h-354v-215h347v-74h-347v-230h354v-74z" />
<glyph unicode="&#x416;" horiz-adv-x="909" d="M120 0h-103l302 350l-278 317h104l268 -314v314h83v-314l269 314h104l-279 -317l303 -350h-104l-253 300l-40 -46v-254h-83v254l-40 46z" />
<glyph unicode="&#x417;" horiz-adv-x="584" d="M280 -12q-84 0 -151 31t-100 79l49 53q30 -40 84.5 -64.5t115.5 -24.5q78 0 123 33.5t45 91.5q0 60 -46.5 89t-126.5 29h-136v74h136q71 0 116.5 27.5t45.5 82.5q0 54 -45.5 84t-114.5 30q-113 0 -189 -81l-46 52q40 46 102.5 74.5t138.5 28.5q102 0 170.5 -48t68.5 -130 q0 -66 -44.5 -105.5t-99.5 -49.5q55 -5 104.5 -48t49.5 -116q0 -84 -69 -138t-181 -54z" />
<glyph unicode="&#x418;" horiz-adv-x="708" d="M158 0h-80v667h83v-521l384 521h85v-667h-83v532z" />
<glyph unicode="&#x419;" horiz-adv-x="708" d="M158 0h-80v667h83v-521l384 521h85v-667h-83v532zM529 793q-65 -88 -175 -88q-109 0 -176 88l37 32q52 -72 139 -72q88 0 138 72z" />
<glyph unicode="&#x41a;" horiz-adv-x="601" d="M584 0h-103l-253 300l-67 -76v-224h-83v667h83v-345l295 345h104l-278 -317z" />
<glyph unicode="&#x41b;" horiz-adv-x="712" d="M32 -12v74q43 0 70 20t48 79.5t35 170.5l41 335h408v-667h-83v593h-251l-33 -267q-13 -107 -34.5 -176t-53 -103.5t-65 -46.5t-82.5 -12z" />
<glyph unicode="&#x41c;" horiz-adv-x="809" d="M731 0h-83v549l-227 -549h-34l-226 549v-549h-83v667h119l207 -502l208 502h119v-667z" />
<glyph unicode="&#x41d;" horiz-adv-x="712" d="M634 0h-83v306h-390v-306h-83v667h83v-287h390v287h83v-667z" />
<glyph unicode="&#x41e;" horiz-adv-x="765" d="M382 -12q-147 0 -239 98t-92 247t92 247t239 98q146 0 238.5 -98t92.5 -247t-92.5 -247t-238.5 -98zM382 62q110 0 177.5 76.5t67.5 194.5q0 119 -67.5 195t-177.5 76q-111 0 -178 -76t-67 -195q0 -118 67 -194.5t178 -76.5z" />
<glyph unicode="&#x41f;" horiz-adv-x="712" d="M634 0h-83v593h-390v-593h-83v667h556v-667z" />
<glyph unicode="&#x420;" horiz-adv-x="587" d="M161 0h-83v667h268q97 0 153 -58t56 -143t-56.5 -143t-152.5 -58h-185v-265zM336 339q59 0 96 35.5t37 91.5t-37 91.5t-96 35.5h-175v-254h175z" />
<glyph unicode="&#x421;" horiz-adv-x="676" d="M394 -12q-146 0 -244.5 96.5t-98.5 248.5t98.5 248.5t244.5 96.5q160 0 253 -132l-70 -39q-29 43 -78 70t-105 27q-110 0 -183.5 -76.5t-73.5 -194.5t73.5 -194.5t183.5 -76.5q56 0 105 26.5t78 70.5l71 -39q-97 -132 -254 -132z" />
<glyph unicode="&#x422;" horiz-adv-x="570" d="M326 0h-83v593h-211v74h506v-74h-212v-593z" />
<glyph unicode="&#x423;" horiz-adv-x="626" d="M145 -12q-41 0 -76 15t-54 38l35 66q43 -45 91 -45q38 0 60.5 20t51.5 75l12 23l-256 487h95l209 -413l209 413h95l-291 -549q-35 -66 -75 -98t-106 -32z" />
<glyph unicode="&#x424;" horiz-adv-x="806" d="M444 0h-83v65q-144 10 -227 82t-83 186q0 113 83 185t227 82v67h83v-67q143 -10 227 -82.5t84 -184.5q0 -114 -83.5 -186t-227.5 -82v-65zM669 333q0 80 -60 132t-165 61v-386q105 9 165 61t60 132zM137 333q0 -80 59.5 -132t164.5 -61v386q-105 -9 -164.5 -61 t-59.5 -132z" />
<glyph unicode="&#x425;" horiz-adv-x="652" d="M639 0h-100l-213 284l-213 -284h-101l260 342l-245 325h101l198 -267l197 267h101l-244 -324z" />
<glyph unicode="&#x426;" horiz-adv-x="723" d="M612 -123v123h-534v667h83v-593h390v593h83v-593h61v-197h-83z" />
<glyph unicode="&#x427;" horiz-adv-x="611" d="M141 667v-174q0 -154 155 -154q83 0 154 23v305h83v-667h-83v288q-84 -23 -161 -23q-114 0 -172.5 61.5t-58.5 167.5v173h83z" />
<glyph unicode="&#x428;" horiz-adv-x="958" d="M797 667h83v-667h-802v667h83v-593h277v593h83v-593h276v593z" />
<glyph unicode="&#x429;" horiz-adv-x="975" d="M803 667h83v-593h60v-197h-83v123h-780v667h83v-593h277v593h83v-593h277v593z" />
<glyph unicode="&#x42a;" horiz-adv-x="752" d="M511 0h-268v593h-211v74h294v-265h185q96 0 152.5 -58t56.5 -143t-56 -143t-153 -58zM501 328h-175v-254h175q59 0 96 35.5t37 91.5t-37 91.5t-96 35.5z" />
<glyph unicode="&#x42b;" horiz-adv-x="788" d="M78 667h83v-265h185q96 0 152.5 -58t56.5 -143t-56 -143t-153 -58h-268v667zM336 328h-175v-254h175q59 0 96 35.5t37 91.5t-37 91.5t-96 35.5zM710 0h-83v667h83v-667z" />
<glyph unicode="&#x42c;" horiz-adv-x="587" d="M78 667h83v-265h185q96 0 152.5 -58t56.5 -143t-56 -143t-153 -58h-268v667zM336 328h-175v-254h175q59 0 96 35.5t37 91.5t-37 91.5t-96 35.5z" />
<glyph unicode="&#x42d;" horiz-adv-x="676" d="M282 -12q-157 0 -254 132l71 39q29 -44 78 -70.5t105 -26.5q103 0 174.5 67.5t80.5 174.5h-366v74h364q-14 101 -84 163.5t-169 62.5q-56 0 -105 -27t-78 -70l-70 39q93 132 253 132q146 0 244.5 -96.5t98.5 -248.5t-98.5 -248.5t-244.5 -96.5z" />
<glyph unicode="&#x42e;" horiz-adv-x="992" d="M609 -12q-140 0 -231 89.5t-99 228.5h-118v-306h-83v667h83v-287h119q15 132 105 215t224 83q146 0 239 -98t93 -247t-93 -247t-239 -98zM609 62q110 0 178 76.5t68 194.5t-68 194.5t-178 76.5q-111 0 -178 -76t-67 -195q0 -118 67 -194.5t178 -76.5z" />
<glyph unicode="&#x42f;" horiz-adv-x="608" d="M144 0h-97l180 272q-73 6 -123.5 57t-50.5 137q0 91 58.5 146t151.5 55h268v-667h-83v265h-134zM272 338h176v255h-176q-59 0 -96 -35.5t-37 -91.5t37.5 -92t95.5 -36z" />
<glyph unicode="&#x430;" horiz-adv-x="527" d="M452 0h-75v55q-61 -67 -160 -67q-67 0 -118 43t-51 117q0 76 50.5 117.5t118.5 41.5q103 0 160 -66v87q0 48 -34 75t-88 27q-85 0 -148 -67l-35 52q77 80 193 80q83 0 135 -40t52 -123v-332zM244 42q90 0 133 60v91q-43 60 -133 60q-52 0 -85.5 -29.5t-33.5 -76.5 q0 -46 33.5 -75.5t85.5 -29.5z" />
<glyph unicode="&#x431;" horiz-adv-x="577" d="M286 55q74 0 117 54.5t43 133.5q0 77 -43 131t-117 54t-117.5 -54t-43.5 -131q0 -79 43.5 -133.5t117.5 -54.5zM286 -12q-109 0 -174 77t-65 199q0 172 62 254.5t191 99.5q77 12 106.5 23t29.5 26h73q0 -28 -17 -48.5t-48.5 -32.5t-59 -18.5t-65.5 -11.5 q-100 -14 -144.5 -55t-58.5 -109q66 103 182 103q100 0 163 -73t63 -179q0 -108 -65 -181.5t-173 -73.5z" />
<glyph unicode="&#x432;" horiz-adv-x="554" d="M346 0h-271v483h266q63 0 99.5 -34t36.5 -90q0 -41 -22.5 -70.5t-55.5 -39.5q37 -9 62.5 -43t25.5 -75q0 -59 -37.5 -95t-103.5 -36zM331 66q36 0 57 20t21 54q0 31 -21 53t-57 22h-181v-149h181zM328 281q34 0 53 18.5t19 48.5q0 32 -19 50.5t-53 18.5h-178v-136h178z " />
<glyph unicode="&#x433;" horiz-adv-x="436" d="M413 483v-66h-263v-417h-75v483h338z" />
<glyph unicode="&#x434;" horiz-adv-x="561" d="M18 -123v185q37 7 58 44.5t34 138.5l31 238h336v-417h56v-189h-75v123h-365v-123h-75zM207 417l-22 -181q-17 -127 -70 -170h287v351h-195z" />
<glyph unicode="&#x435;" horiz-adv-x="563" d="M293 -12q-108 0 -177 70.5t-69 183.5q0 106 68 179.5t170 73.5q107 0 169.5 -73.5t62.5 -185.5v-19h-391q5 -71 52 -119t122 -48q90 0 149 61l36 -49q-74 -74 -192 -74zM443 272q-1 62 -42 111.5t-117 49.5q-72 0 -113.5 -49t-44.5 -112h317z" />
<glyph unicode="&#x436;" horiz-adv-x="711" d="M110 0h-96l215 264l-214 219h95l208 -213v213h75v-212l208 212h95l-215 -219l216 -264h-96l-174 217l-34 -34v-183h-75v183l-34 34z" />
<glyph unicode="&#x437;" horiz-adv-x="514" d="M246 -12q-139 0 -218 79l37 48q68 -65 181 -65q65 0 103.5 23t38.5 61q0 80 -152 80h-108v61h108q63 0 103 20.5t40 60.5q0 34 -40 55.5t-101 21.5q-101 0 -162 -62l-39 46q75 77 198 77q99 1 160.5 -33.5t61.5 -95.5q0 -50 -40.5 -81t-89.5 -37q51 -4 95.5 -34t44.5 -84 q0 -62 -59.5 -101.5t-161.5 -39.5z" />
<glyph unicode="&#x438;" horiz-adv-x="552" d="M147 0h-72v483h75v-369l253 369h74v-483h-75v376z" />
<glyph unicode="&#x439;" horiz-adv-x="552" d="M147 0h-72v483h75v-369l253 369h74v-483h-75v376zM451 626q-65 -88 -175 -88q-109 0 -176 88l37 32q52 -72 139 -72q88 0 138 72z" />
<glyph unicode="&#x43a;" horiz-adv-x="514" d="M500 0h-96l-174 217l-80 -79v-138h-75v483h75v-257l254 257h95l-214 -219z" />
<glyph unicode="&#x43b;" horiz-adv-x="552" d="M18 -12v62q34 0 56 45t36 150l31 238h336v-483h-75v417h-195l-22 -181q-16 -133 -56 -190.5t-111 -57.5z" />
<glyph unicode="&#x43c;" horiz-adv-x="643" d="M568 0h-75v379l-157 -379h-28l-158 379v-379h-75v483h99l148 -358l146 358h100v-483z" />
<glyph unicode="&#x43d;" horiz-adv-x="552" d="M150 0h-75v483h75v-201h252v201h75v-483h-75v216h-252v-216z" />
<glyph unicode="&#x43e;" d="M286 -12q-108 0 -173.5 73t-65.5 181t65.5 180.5t173.5 72.5t173.5 -72.5t65.5 -180.5t-65.5 -181t-173.5 -73zM286 55q74 0 117 54.5t43 132.5t-43 132t-117 54t-117.5 -54.5t-43.5 -131.5q0 -78 43.5 -132.5t117.5 -54.5z" />
<glyph unicode="&#x43f;" horiz-adv-x="552" d="M477 0h-75v417h-252v-417h-75v483h402v-483z" />
<glyph unicode="&#x440;" d="M313 -12q-102 0 -163 85v-257h-75v667h75v-72q27 38 70 61t93 23q96 0 155.5 -68.5t59.5 -184.5t-59.5 -185t-155.5 -69zM294 55q71 0 113 52.5t42 134.5t-42 134t-113 52q-43 0 -83.5 -22.5t-60.5 -54.5v-218q20 -33 60.5 -55.5t83.5 -22.5z" />
<glyph unicode="&#x441;" horiz-adv-x="495" d="M288 -12q-107 0 -174 72.5t-67 181.5t67 181t174 72q112 0 177 -84l-50 -46q-46 63 -123 63q-76 0 -121.5 -52t-45.5 -134t45.5 -134.5t121.5 -52.5t123 63l50 -46q-65 -84 -177 -84z" />
<glyph unicode="&#x442;" horiz-adv-x="402" d="M238 0h-75v417h-140v66h356v-66h-141v-417z" />
<glyph unicode="&#x443;" horiz-adv-x="490" d="M48 -189l12 68q18 -8 41 -8q26 0 43 11t29 40l32 73l-202 488h81l161 -396l160 396h82l-242 -581q-40 -96 -142 -98q-30 0 -55 7z" />
<glyph unicode="&#x444;" horiz-adv-x="798" d="M230 495q82 0 132 -85v257h75v-256q22 38 56.5 61t74.5 23q78 0 126 -68.5t48 -184.5t-48.5 -185t-125.5 -69q-82 0 -131 85v-257h-75v256q-22 -38 -57 -61t-75 -23q-78 0 -126 68.5t-48 184.5t48.5 185t125.5 69zM251 428q-55 0 -87 -52.5t-32 -134.5t32 -134t87 -52 q34 0 65 22t46 55v218q-16 33 -47 55.5t-64 22.5zM547 55q55 0 87 52.5t32 134.5t-32 134t-87 52q-33 0 -64 -22.5t-46 -54.5v-218q16 -33 46.5 -55.5t63.5 -22.5z" />
<glyph unicode="&#x445;" horiz-adv-x="486" d="M475 0h-87l-145 198l-145 -198h-86l185 248l-175 235h87l134 -184l134 184h87l-175 -235z" />
<glyph unicode="&#x446;" horiz-adv-x="561" d="M458 -123v123h-383v483h75v-417h252v417h75v-417h56v-189h-75z" />
<glyph unicode="&#x447;" horiz-adv-x="541" d="M65 483h75v-136q0 -65 30 -90t93 -25q78 0 128 26v225h75v-483h-75v197q-64 -32 -147 -32q-94 0 -136.5 38t-42.5 121v159z" />
<glyph unicode="&#x448;" horiz-adv-x="783" d="M633 483h75v-483h-633v483h75v-417h204v417h75v-417h204v417z" />
<glyph unicode="&#x449;" horiz-adv-x="798" d="M633 483h75v-417h62v-189h-75v123h-620v483h75v-417h204v417h75v-417h204v417z" />
<glyph unicode="&#x44a;" horiz-adv-x="610" d="M419 0h-256v417h-140v66h215v-187h181q72 0 112 -42.5t40 -105.5t-40.5 -105.5t-111.5 -42.5zM411 230h-173v-164h173q40 0 61.5 22.5t21.5 59.5t-21.5 59.5t-61.5 22.5z" />
<glyph unicode="&#x44b;" horiz-adv-x="712" d="M75 483h75v-187h181q72 0 112 -42.5t40 -105.5t-40.5 -105.5t-111.5 -42.5h-256v483zM323 230h-173v-164h173q40 0 61.5 22.5t21.5 59.5t-21.5 59.5t-61.5 22.5zM637 0h-75v483h75v-483z" />
<glyph unicode="&#x44c;" horiz-adv-x="522" d="M75 483h75v-187h181q72 0 112 -42.5t40 -105.5t-40.5 -105.5t-111.5 -42.5h-256v483zM323 230h-173v-164h173q40 0 61.5 22.5t21.5 59.5t-21.5 59.5t-61.5 22.5z" />
<glyph unicode="&#x44d;" horiz-adv-x="495" d="M207 -12q-112 0 -177 84l48 44q49 -66 126 -66q69 0 112.5 44t51.5 118h-243v65h242q-9 71 -52.5 113.5t-110.5 42.5q-78 0 -126 -66l-48 44q65 84 177 84q107 0 174.5 -72t67.5 -181t-67.5 -181.5t-174.5 -72.5z" />
<glyph unicode="&#x44e;" horiz-adv-x="767" d="M480 -12q-100 0 -164.5 64.5t-72.5 163.5h-93v-216h-75v483h75v-201h94q12 93 75.5 153t160.5 60q108 0 174 -72.5t66 -180.5t-66 -181t-174 -73zM480 55q75 0 118 54.5t43 132.5t-43 132t-118 54q-73 0 -116.5 -54.5t-43.5 -131.5q0 -78 43 -132.5t117 -54.5z" />
<glyph unicode="&#x44f;" horiz-adv-x="547" d="M147 0h-88l129 190q-55 7 -89.5 46t-34.5 99q0 64 41 106t112 42h255v-483h-75v187h-132zM225 253h172v164h-172q-39 0 -61.5 -22.5t-22.5 -59.5t22 -59.5t62 -22.5z" />
<glyph unicode="&#x451;" horiz-adv-x="563" d="M435 604q0 -19 -14 -33t-33 -14t-33 14t-14 33t14 32.5t33 13.5t33 -13.5t14 -32.5zM228 604q0 -19 -13.5 -33t-32.5 -14q-20 0 -33.5 13.5t-13.5 33.5q0 19 14 32.5t33 13.5t32.5 -13.5t13.5 -32.5zM293 -12q-108 0 -177 70.5t-69 183.5q0 106 68 179.5t170 73.5 q107 0 169.5 -73.5t62.5 -185.5v-19h-391q5 -71 52 -119t122 -48q90 0 149 61l36 -49q-74 -74 -192 -74zM443 272q-1 62 -42 111.5t-117 49.5q-72 0 -113.5 -49t-44.5 -112h317z" />
<glyph unicode="&#x452;" horiz-adv-x="554" d="M309 535h-157v-122q28 33 75 57.5t98 24.5q154 0 154 -154v-388q0 -71 -37 -110t-107 -39q-60 0 -105 36l26 57q31 -31 69 -31q36 0 57.5 21.5t21.5 65.5v365q0 60 -28 85t-81 25q-41 0 -80.5 -22t-62.5 -53v-353h-75v535h-68v48h68v84h75v-84h157v-48z" />
<glyph unicode="&#x453;" horiz-adv-x="436" d="M414 700l-169 -144h-57l148 144h78zM413 483v-66h-263v-417h-75v483h338z" />
<glyph unicode="&#x454;" horiz-adv-x="495" d="M288 -12q-107 0 -174 72.5t-67 181.5t67 181t174 72q112 0 177 -84l-48 -44q-48 66 -125 66q-68 0 -112 -42.5t-53 -113.5h243v-65h-244q8 -74 52 -118t114 -44q76 0 125 66l48 -44q-65 -84 -177 -84z" />
<glyph unicode="&#x455;" horiz-adv-x="465" d="M228 -12q-123 0 -195 76l39 54q25 -29 68.5 -49t90.5 -20q54 0 84 23t30 60q0 32 -31 50.5t-74.5 28t-87.5 22t-75 43t-31 80.5q0 59 48.5 99t131.5 40q109 0 179 -70l-35 -52q-51 61 -144 61q-49 0 -78 -21.5t-29 -54.5q0 -29 31 -45.5t74.5 -26t87.5 -22.5t75 -45.5 t31 -84.5q0 -64 -50 -105t-140 -41z" />
<glyph unicode="&#x456;" horiz-adv-x="225" d="M112 552q-20 0 -35 14.5t-15 35.5t15 36t35 15q21 0 36 -15t15 -36t-15 -35.5t-36 -14.5zM150 0h-75v483h75v-483z" />
<glyph unicode="&#x457;" horiz-adv-x="225" d="M263 604q0 -19 -14 -33t-33 -14t-33 14t-14 33t14 32.5t33 13.5t33 -13.5t14 -32.5zM56 604q0 -19 -13.5 -33t-32.5 -14q-20 0 -33.5 13.5t-13.5 33.5q0 19 14 32.5t33 13.5t32.5 -13.5t13.5 -32.5zM150 0h-75v483h75v-483z" />
<glyph unicode="&#x458;" horiz-adv-x="225" d="M112 552q-20 0 -35 14.5t-15 35.5t15 36t35 15q21 0 36 -15t15 -36t-15 -35.5t-36 -14.5zM7 -196q-59 0 -106 36l27 57q31 -31 69 -31q36 0 57 21.5t21 65.5v530h75v-530q0 -71 -37 -110t-106 -39z" />
<glyph unicode="&#x459;" horiz-adv-x="849" d="M18 -12v62q34 0 56 45t36 150l31 238h336v-187h180q72 0 112.5 -42.5t40.5 -105.5t-40.5 -105.5t-112.5 -42.5h-255v417h-195l-22 -181q-16 -133 -56 -190.5t-111 -57.5zM650 230h-173v-164h173q40 0 61.5 22.5t21.5 59.5q0 36 -22 59t-61 23z" />
<glyph unicode="&#x45a;" horiz-adv-x="849" d="M150 0h-75v483h75v-201h252v201h75v-201h188q68 0 106.5 -40.5t38.5 -101.5q0 -59 -38.5 -99.5t-106.5 -40.5h-263v216h-252v-216zM657 216h-180v-150h180q36 0 56 20.5t20 53.5q0 34 -20 55t-56 21z" />
<glyph unicode="&#x45b;" horiz-adv-x="554" d="M308 535h-156v-122q28 33 75 57.5t98 24.5q154 0 154 -154v-341h-75v318q0 60 -28 85t-81 25q-41 0 -80.5 -22t-62.5 -53v-353h-75v535h-68v48h68v84h75v-84h156v-48z" />
<glyph unicode="&#x45c;" horiz-adv-x="514" d="M428 700l-169 -144h-57l148 144h78zM500 0h-96l-174 217l-80 -79v-138h-75v483h75v-257l254 257h95l-214 -219z" />
<glyph unicode="&#x45e;" horiz-adv-x="490" d="M48 -189l12 68q18 -8 41 -8q26 0 43 11t29 40l32 73l-202 488h81l161 -396l160 396h82l-242 -581q-40 -96 -142 -98q-30 0 -55 7zM421 626q-65 -88 -175 -88q-109 0 -176 88l37 32q52 -72 139 -72q88 0 138 72z" />
<glyph unicode="&#x45f;" horiz-adv-x="552" d="M239 -126v126h-164v483h75v-417h252v417h75v-483h-163v-126h-75z" />
<glyph unicode="&#x490;" horiz-adv-x="550" d="M161 593v-593h-83v667h354v123h83v-197h-354z" />
<glyph unicode="&#x491;" horiz-adv-x="436" d="M150 417v-417h-75v483h263v126h75v-192h-263z" />
<glyph unicode="&#x1e02;" horiz-adv-x="629" d="M382 0h-304v667h297q86 0 136.5 -47t50.5 -123q0 -60 -34 -101.5t-83 -51.5q53 -8 91.5 -56t38.5 -108q0 -81 -51.5 -130.5t-141.5 -49.5zM361 378q55 0 85 30t30 77t-30.5 77.5t-84.5 30.5h-200v-215h200zM365 74q58 0 91 31t33 84q0 49 -32.5 82t-91.5 33h-204v-230 h204zM314 722q-19 0 -33 14t-14 33t14 33t33 14t32.5 -13.5t13.5 -33.5t-13.5 -33.5t-32.5 -13.5z" />
<glyph unicode="&#x1e03;" horiz-adv-x="575" d="M150 131q20 -32 60.5 -54t83.5 -22q72 0 114 52t42 134t-42 134.5t-114 52.5q-43 0 -83.5 -22.5t-60.5 -55.5v-219zM150 0h-75v667h75v-257q63 85 163 85q95 0 155 -69.5t60 -184.5q0 -116 -59.5 -184.5t-155.5 -68.5q-101 0 -163 84v-72zM294 722q-19 0 -33 14t-14 33 t14 33t33 14t32.5 -13.5t13.5 -33.5t-13.5 -33.5t-32.5 -13.5z" />
<glyph unicode="&#x1e0a;" horiz-adv-x="700" d="M306 0h-228v667h228q153 0 247.5 -95t94.5 -239q0 -145 -94.5 -239t-247.5 -94zM306 74q118 0 187 74t69 185q0 112 -68 186t-188 74h-145v-519h145zM350 722q-19 0 -33 14t-14 33t14 33t33 14t32.5 -13.5t13.5 -33.5t-13.5 -33.5t-32.5 -13.5z" />
<glyph unicode="&#x1e0b;" horiz-adv-x="575" d="M500 0h-75v72q-62 -84 -163 -84q-96 0 -155.5 68.5t-59.5 184.5q0 115 59.5 184.5t155.5 69.5q100 0 163 -85v257h75v-667zM280 55q44 0 84 22t61 54v219q-21 33 -61.5 55.5t-83.5 22.5q-71 0 -113 -52.5t-42 -134.5t42 -134t113 -52zM282 722q-19 0 -33 14t-14 33t14 33 t33 14t32.5 -13.5t13.5 -33.5t-13.5 -33.5t-32.5 -13.5z" />
<glyph unicode="&#x1e1e;" horiz-adv-x="550" d="M297 722q-19 0 -33 14t-14 33t14 33t33 14t32.5 -13.5t13.5 -33.5t-13.5 -33.5t-32.5 -13.5zM161 0h-83v667h437v-74h-354v-215h347v-74h-347v-304z" />
<glyph unicode="&#x1e1f;" horiz-adv-x="283" d="M237 722q-19 0 -33 14t-14 33t14 33t33 14t32.5 -13.5t13.5 -33.5t-13.5 -33.5t-32.5 -13.5zM171 0h-75v417h-80v66h80v37q0 74 37.5 115.5t102.5 41.5q62 0 102 -37l-31 -49q-27 24 -60 24q-37 0 -56.5 -24.5t-19.5 -70.5v-37h98v-66h-98v-417z" />
<glyph unicode="&#x1e22;" horiz-adv-x="712" d="M634 0h-83v306h-390v-306h-83v667h83v-287h390v287h83v-667zM355 722q-19 0 -33 14t-14 33t14 33t33 14t32.5 -13.5t13.5 -33.5t-13.5 -33.5t-32.5 -13.5z" />
<glyph unicode="&#x1e23;" horiz-adv-x="552" d="M477 0h-75v318q0 60 -28 85t-81 25q-41 0 -80.5 -22t-62.5 -53v-353h-75v667h75v-254q28 33 75 57.5t98 24.5q154 0 154 -154v-341zM276 722q-19 0 -33 14t-14 33t14 33t33 14t32.5 -13.5t13.5 -33.5t-13.5 -33.5t-32.5 -13.5z" />
<glyph unicode="&#x1e56;" horiz-adv-x="587" d="M161 0h-83v667h268q97 0 153 -58t56 -143t-56.5 -143t-152.5 -58h-185v-265zM336 339q59 0 96 35.5t37 91.5t-37 91.5t-96 35.5h-175v-254h175zM293 722q-19 0 -33 14t-14 33t14 33t33 14t32.5 -13.5t13.5 -33.5t-13.5 -33.5t-32.5 -13.5z" />
<glyph unicode="&#x1e57;" d="M313 -12q-102 0 -163 85v-257h-75v667h75v-72q27 38 70 61t93 23q96 0 155.5 -68.5t59.5 -184.5t-59.5 -185t-155.5 -69zM294 55q71 0 113 52.5t42 134.5t-42 134t-113 52q-43 0 -83.5 -22.5t-60.5 -54.5v-218q20 -33 60.5 -55.5t83.5 -22.5zM293 555q-19 0 -33 14 t-14 33t14 33t33 14t32.5 -13.5t13.5 -33.5t-13.5 -33.5t-32.5 -13.5z" />
<glyph unicode="&#x1e60;" horiz-adv-x="586" d="M294 -12q-162 0 -256 106l49 63q85 -95 210 -95q81 0 119 34.5t38 80.5q0 35 -22 59t-56.5 37.5t-77 24.5t-84.5 24.5t-76.5 32.5t-56.5 54t-22 83q0 82 65 133.5t164 51.5q149 0 237 -93l-50 -61q-73 80 -193 80q-60 0 -98.5 -29.5t-38.5 -76.5q0 -35 29.5 -58t73 -34 t95 -27.5t95 -35t73 -59.5t29.5 -99q0 -82 -60.5 -139t-185.5 -57zM293 722q-19 0 -33 14t-14 33t14 33t33 14t32.5 -13.5t13.5 -33.5t-13.5 -33.5t-32.5 -13.5z" />
<glyph unicode="&#x1e61;" horiz-adv-x="465" d="M228 -12q-123 0 -195 76l39 54q25 -29 68.5 -49t90.5 -20q54 0 84 23t30 60q0 32 -31 50.5t-74.5 28t-87.5 22t-75 43t-31 80.5q0 59 48.5 99t131.5 40q109 0 179 -70l-35 -52q-51 61 -144 61q-49 0 -78 -21.5t-29 -54.5q0 -29 31 -45.5t74.5 -26t87.5 -22.5t75 -45.5 t31 -84.5q0 -64 -50 -105t-140 -41zM232 555q-19 0 -33 14t-14 33t14 33t33 14t32.5 -13.5t13.5 -33.5t-13.5 -33.5t-32.5 -13.5z" />
<glyph unicode="&#x1e6a;" horiz-adv-x="570" d="M326 0h-83v593h-211v74h506v-74h-212v-593zM284 722q-19 0 -33 14t-14 33t14 33t33 14t32.5 -13.5t13.5 -33.5t-13.5 -33.5t-32.5 -13.5z" />
<glyph unicode="&#x1e6b;" horiz-adv-x="294" d="M197 -12q-53 0 -80 29t-27 84v316h-80v66h80v132h75v-132h98v-66h-98v-300q0 -28 12.5 -45t36.5 -17q33 0 51 20l22 -56q-33 -31 -90 -31zM134 722q-19 0 -33 14t-14 33t14 33t33 14t32.5 -13.5t13.5 -33.5t-13.5 -33.5t-32.5 -13.5z" />
<glyph unicode="&#x1e80;" horiz-adv-x="883" d="M678 0h-90l-147 538l-147 -538h-90l-190 667h92l148 -556l153 556h69l153 -556l147 556h92zM498 723h-57l-169 144h78z" />
<glyph unicode="&#x1e81;" horiz-adv-x="734" d="M568 0h-75l-126 388l-126 -388h-75l-154 483h78l118 -385l127 385h64l127 -385l118 385h78zM424 556h-57l-169 144h78z" />
<glyph unicode="&#x1e82;" horiz-adv-x="883" d="M610 867l-169 -144h-57l148 144h78zM678 0h-90l-147 538l-147 -538h-90l-190 667h92l148 -556l153 556h69l153 -556l147 556h92z" />
<glyph unicode="&#x1e83;" horiz-adv-x="734" d="M536 700l-169 -144h-57l148 144h78zM568 0h-75l-126 388l-126 -388h-75l-154 483h78l118 -385l127 385h64l127 -385l118 385h78z" />
<glyph unicode="&#x1e84;" horiz-adv-x="883" d="M591 771q0 -19 -14 -33t-33 -14t-33 14t-14 33t14 32.5t33 13.5t33 -13.5t14 -32.5zM384 771q0 -19 -13.5 -33t-32.5 -14q-20 0 -33.5 14t-13.5 33t14 32.5t33 13.5t32.5 -13.5t13.5 -32.5zM678 0h-90l-147 538l-147 -538h-90l-190 667h92l148 -556l153 556h69l153 -556 l147 556h92z" />
<glyph unicode="&#x1e85;" horiz-adv-x="734" d="M517 604q0 -19 -14 -33t-33 -14t-33 14t-14 33t14 32.5t33 13.5t33 -13.5t14 -32.5zM310 604q0 -19 -13.5 -33t-32.5 -14q-20 0 -33.5 13.5t-13.5 33.5q0 19 14 32.5t33 13.5t32.5 -13.5t13.5 -32.5zM568 0h-75l-126 388l-126 -388h-75l-154 483h78l118 -385l127 385h64 l127 -385l118 385h78z" />
<glyph unicode="&#x1ea0;" horiz-adv-x="658" d="M649 0h-95l-59 148h-332l-59 -148h-95l268 667h103zM470 222l-141 359l-142 -359h283zM329 -184q-19 0 -33 14t-14 33t14 33t33 14t32.5 -13.5t13.5 -33.5t-13.5 -33.5t-32.5 -13.5z" />
<glyph unicode="&#x1ea1;" horiz-adv-x="527" d="M452 0h-75v55q-61 -67 -160 -67q-67 0 -118 43t-51 117q0 76 50.5 117.5t118.5 41.5q103 0 160 -66v87q0 48 -34 75t-88 27q-85 0 -148 -67l-35 52q77 80 193 80q83 0 135 -40t52 -123v-332zM244 42q90 0 133 60v91q-43 60 -133 60q-52 0 -85.5 -29.5t-33.5 -76.5 q0 -46 33.5 -75.5t85.5 -29.5zM264 -184q-19 0 -33 14t-14 33t14 33t33 14t32.5 -13.5t13.5 -33.5t-13.5 -33.5t-32.5 -13.5z" />
<glyph unicode="&#x1ea2;" horiz-adv-x="658" d="M649 0h-95l-59 148h-332l-59 -148h-95l268 667h103zM470 222l-141 359l-142 -359h283zM289 756l-33 9q18 55 73 55q31 0 51.5 -17.5t20.5 -51.5q0 -28 -19 -54h-40q23 23 23 52q0 39 -36 39q-29 0 -40 -32z" />
<glyph unicode="&#x1ea3;" horiz-adv-x="527" d="M452 0h-75v55q-61 -67 -160 -67q-67 0 -118 43t-51 117q0 76 50.5 117.5t118.5 41.5q103 0 160 -66v87q0 48 -34 75t-88 27q-85 0 -148 -67l-35 52q77 80 193 80q83 0 135 -40t52 -123v-332zM244 42q90 0 133 60v91q-43 60 -133 60q-52 0 -85.5 -29.5t-33.5 -76.5 q0 -46 33.5 -75.5t85.5 -29.5zM224 586l-33 9q18 55 73 55q31 0 51.5 -17.5t20.5 -51.5q0 -28 -19 -54h-40q23 23 23 52q0 39 -36 39q-29 0 -40 -32z" />
<glyph unicode="&#x1ea4;" horiz-adv-x="658" d="M463 682h-51l-83 79l-80 -79h-51l95 108h72zM649 0h-95l-59 148h-332l-59 -148h-95l268 667h103zM470 222l-141 359l-142 -359h283zM657 844l-169 -108h-57l148 108h78z" />
<glyph unicode="&#x1ea5;" horiz-adv-x="527" d="M452 0h-75v55q-61 -67 -160 -67q-67 0 -118 43t-51 117q0 76 50.5 117.5t118.5 41.5q103 0 160 -66v87q0 48 -34 75t-88 27q-85 0 -148 -67l-35 52q77 80 193 80q83 0 135 -40t52 -123v-332zM244 42q90 0 133 60v91q-43 60 -133 60q-52 0 -85.5 -29.5t-33.5 -76.5 q0 -46 33.5 -75.5t85.5 -29.5zM398 556h-51l-83 106l-80 -106h-51l95 144h72zM587 770l-169 -144h-57l148 144h78z" />
<glyph unicode="&#x1ea6;" horiz-adv-x="658" d="M463 682h-51l-83 79l-80 -79h-51l95 108h72zM649 0h-95l-59 148h-332l-59 -148h-95l268 667h103zM470 222l-141 359l-142 -359h283zM229 736h-57l-169 108h78z" />
<glyph unicode="&#x1ea7;" horiz-adv-x="527" d="M452 0h-75v55q-61 -67 -160 -67q-67 0 -118 43t-51 117q0 76 50.5 117.5t118.5 41.5q103 0 160 -66v87q0 48 -34 75t-88 27q-85 0 -148 -67l-35 52q77 80 193 80q83 0 135 -40t52 -123v-332zM244 42q90 0 133 60v91q-43 60 -133 60q-52 0 -85.5 -29.5t-33.5 -76.5 q0 -46 33.5 -75.5t85.5 -29.5zM398 556h-51l-83 106l-80 -106h-51l95 144h72zM169 626h-57l-169 144h78z" />
<glyph unicode="&#x1ea8;" horiz-adv-x="658" d="M463 682h-51l-83 79l-80 -79h-51l95 108h72zM649 0h-95l-59 148h-332l-59 -148h-95l268 667h103zM470 222l-141 359l-142 -359h283zM428 788l-33 7q18 41 73 41q31 0 51.5 -13t20.5 -38q0 -21 -19 -41h-40q23 18 23 39q0 29 -36 29q-29 0 -40 -24z" />
<glyph unicode="&#x1ea9;" horiz-adv-x="527" d="M452 0h-75v55q-61 -67 -160 -67q-67 0 -118 43t-51 117q0 76 50.5 117.5t118.5 41.5q103 0 160 -66v87q0 48 -34 75t-88 27q-85 0 -148 -67l-35 52q77 80 193 80q83 0 135 -40t52 -123v-332zM244 42q90 0 133 60v91q-43 60 -133 60q-52 0 -85.5 -29.5t-33.5 -76.5 q0 -46 33.5 -75.5t85.5 -29.5zM398 556h-51l-83 106l-80 -106h-51l95 144h72zM315 726l-33 9q18 55 73 55q31 0 51.5 -17.5t20.5 -51.5q0 -28 -19 -54h-40q23 23 23 52q0 39 -36 39q-29 0 -40 -32z" />
<glyph unicode="&#x1eaa;" horiz-adv-x="658" d="M463 678h-51l-83 53l-80 -53h-51l95 72h72zM649 0h-95l-59 148h-332l-59 -148h-95l268 667h103zM470 222l-141 359l-142 -359h283zM388 757q-40 0 -71 23t-52 23q-48 0 -48 -43h-45q0 30 25.5 48.5t71.5 18.5q39 0 70.5 -23t52.5 -23q48 0 48 43h45q0 -30 -25.5 -48.5 t-71.5 -18.5z" />
<glyph unicode="&#x1eab;" horiz-adv-x="527" d="M452 0h-75v55q-61 -67 -160 -67q-67 0 -118 43t-51 117q0 76 50.5 117.5t118.5 41.5q103 0 160 -66v87q0 48 -34 75t-88 27q-85 0 -148 -67l-35 52q77 80 193 80q83 0 135 -40t52 -123v-332zM244 42q90 0 133 60v91q-43 60 -133 60q-52 0 -85.5 -29.5t-33.5 -76.5 q0 -46 33.5 -75.5t85.5 -29.5zM398 523h-51l-83 106l-80 -106h-51l95 144h72zM323 682q-25 0 -43.5 14.5t-27.5 31.5t-22.5 31.5t-29.5 14.5q-21 0 -34.5 -21.5t-13.5 -64.5h-45q0 60 25.5 97t71.5 37q24 0 42.5 -14.5t28 -31.5t23 -31.5t29.5 -14.5q21 0 34.5 21.5 t13.5 64.5h45q0 -60 -25.5 -97t-71.5 -37z" />
<glyph unicode="&#x1eac;" horiz-adv-x="658" d="M649 0h-95l-59 148h-332l-59 -148h-95l268 667h103zM470 222l-141 359l-142 -359h283zM462 723h-51l-83 106l-80 -106h-51l95 144h72zM329 -184q-19 0 -33 14t-14 33t14 33t33 14t32.5 -13.5t13.5 -33.5t-13.5 -33.5t-32.5 -13.5z" />
<glyph unicode="&#x1ead;" horiz-adv-x="527" d="M452 0h-75v55q-61 -67 -160 -67q-67 0 -118 43t-51 117q0 76 50.5 117.5t118.5 41.5q103 0 160 -66v87q0 48 -34 75t-88 27q-85 0 -148 -67l-35 52q77 80 193 80q83 0 135 -40t52 -123v-332zM244 42q90 0 133 60v91q-43 60 -133 60q-52 0 -85.5 -29.5t-33.5 -76.5 q0 -46 33.5 -75.5t85.5 -29.5zM396 556h-51l-83 106l-80 -106h-51l95 144h72zM264 -184q-19 0 -33 14t-14 33t14 33t33 14t32.5 -13.5t13.5 -33.5t-13.5 -33.5t-32.5 -13.5z" />
<glyph unicode="&#x1eae;" horiz-adv-x="658" d="M649 0h-95l-59 148h-332l-59 -148h-95l268 667h103zM470 222l-141 359l-142 -359h283zM497 839l-169 -98h-57l148 98h78zM504 760q-65 -75 -175 -75q-109 0 -176 75l37 27q53 -61 139 -61q88 0 138 61z" />
<glyph unicode="&#x1eaf;" horiz-adv-x="527" d="M452 0h-75v55q-61 -67 -160 -67q-67 0 -118 43t-51 117q0 76 50.5 117.5t118.5 41.5q103 0 160 -66v87q0 48 -34 75t-88 27q-85 0 -148 -67l-35 52q77 80 193 80q83 0 135 -40t52 -123v-332zM244 42q90 0 133 60v91q-43 60 -133 60q-52 0 -85.5 -29.5t-33.5 -76.5 q0 -46 33.5 -75.5t85.5 -29.5zM435 766l-169 -144h-57l148 144h78zM440 609q-65 -88 -175 -88q-109 0 -176 88l37 32q52 -72 139 -72q88 0 138 72z" />
<glyph unicode="&#x1eb0;" horiz-adv-x="658" d="M649 0h-95l-59 148h-332l-59 -148h-95l268 667h103zM470 222l-141 359l-142 -359h283zM388 741h-57l-169 98h78zM504 757q-65 -75 -175 -75q-109 0 -176 75l37 27q53 -61 139 -61q88 0 138 61z" />
<glyph unicode="&#x1eb1;" horiz-adv-x="527" d="M452 0h-75v55q-61 -67 -160 -67q-67 0 -118 43t-51 117q0 76 50.5 117.5t118.5 41.5q103 0 160 -66v87q0 48 -34 75t-88 27q-85 0 -148 -67l-35 52q77 80 193 80q83 0 135 -40t52 -123v-332zM244 42q90 0 133 60v91q-43 60 -133 60q-52 0 -85.5 -29.5t-33.5 -76.5 q0 -46 33.5 -75.5t85.5 -29.5zM319 622h-57l-169 144h78zM440 613q-65 -88 -175 -88q-109 0 -176 88l37 32q52 -72 139 -72q88 0 138 72z" />
<glyph unicode="&#x1eb2;" horiz-adv-x="658" d="M649 0h-95l-59 148h-332l-59 -148h-95l268 667h103zM470 222l-141 359l-142 -359h283zM289 784l-33 6q18 37 73 37q31 0 51.5 -11.5t20.5 -34.5q0 -19 -19 -37h-40q23 16 23 35q0 27 -36 27q-29 0 -40 -22zM504 759q-65 -75 -175 -75q-109 0 -176 75l37 27 q53 -61 139 -61q88 0 138 61z" />
<glyph unicode="&#x1eb3;" horiz-adv-x="527" d="M452 0h-75v55q-61 -67 -160 -67q-67 0 -118 43t-51 117q0 76 50.5 117.5t118.5 41.5q103 0 160 -66v87q0 48 -34 75t-88 27q-85 0 -148 -67l-35 52q77 80 193 80q83 0 135 -40t52 -123v-332zM244 42q90 0 133 60v91q-43 60 -133 60q-52 0 -85.5 -29.5t-33.5 -76.5 q0 -46 33.5 -75.5t85.5 -29.5zM224 681l-33 9q18 55 73 55q31 0 51.5 -17.5t20.5 -51.5q0 -28 -19 -54h-40q23 23 23 52q0 39 -36 39q-29 0 -40 -32zM440 613q-65 -88 -175 -88q-109 0 -176 88l37 32q52 -72 139 -72q88 0 138 72z" />
<glyph unicode="&#x1eb4;" horiz-adv-x="658" d="M649 0h-95l-59 148h-332l-59 -148h-95l268 667h103zM470 222l-141 359l-142 -359h283zM505 733q-65 -54 -175 -54q-109 0 -176 54l37 20q52 -44 139 -44q89 0 138 44zM388 757q-40 0 -71 23t-52 23q-48 0 -48 -43h-45q0 30 25.5 48.5t71.5 18.5q39 0 70.5 -23t52.5 -23 q48 0 48 43h45q0 -30 -25.5 -48.5t-71.5 -18.5z" />
<glyph unicode="&#x1eb5;" horiz-adv-x="527" d="M452 0h-75v55q-61 -67 -160 -67q-67 0 -118 43t-51 117q0 76 50.5 117.5t118.5 41.5q103 0 160 -66v87q0 48 -34 75t-88 27q-85 0 -148 -67l-35 52q77 80 193 80q83 0 135 -40t52 -123v-332zM244 42q90 0 133 60v91q-43 60 -133 60q-52 0 -85.5 -29.5t-33.5 -76.5 q0 -46 33.5 -75.5t85.5 -29.5zM440 613q-65 -88 -175 -88q-109 0 -176 88l37 32q52 -72 139 -72q88 0 138 72zM323 657q-25 0 -43.5 14.5t-27.5 31.5t-22.5 31.5t-29.5 14.5q-21 0 -34.5 -21.5t-13.5 -64.5h-45q0 60 25.5 97t71.5 37q24 0 42.5 -14.5t28 -31.5t23 -31.5 t29.5 -14.5q21 0 34.5 21.5t13.5 64.5h45q0 -60 -25.5 -97t-71.5 -37z" />
<glyph unicode="&#x1eb6;" horiz-adv-x="658" d="M649 0h-95l-59 148h-332l-59 -148h-95l268 667h103zM470 222l-141 359l-142 -359h283zM329 -184q-19 0 -33 14t-14 33t14 33t33 14t32.5 -13.5t13.5 -33.5t-13.5 -33.5t-32.5 -13.5zM504 793q-65 -88 -175 -88q-109 0 -176 88l37 32q52 -72 139 -72q88 0 138 72z" />
<glyph unicode="&#x1eb7;" horiz-adv-x="527" d="M452 0h-75v55q-61 -67 -160 -67q-67 0 -118 43t-51 117q0 76 50.5 117.5t118.5 41.5q103 0 160 -66v87q0 48 -34 75t-88 27q-85 0 -148 -67l-35 52q77 80 193 80q83 0 135 -40t52 -123v-332zM244 42q90 0 133 60v91q-43 60 -133 60q-52 0 -85.5 -29.5t-33.5 -76.5 q0 -46 33.5 -75.5t85.5 -29.5zM264 -184q-19 0 -33 14t-14 33t14 33t33 14t32.5 -13.5t13.5 -33.5t-13.5 -33.5t-32.5 -13.5zM437 626q-65 -88 -175 -88q-109 0 -176 88l37 32q52 -72 139 -72q88 0 138 72z" />
<glyph unicode="&#x1eb8;" horiz-adv-x="569" d="M515 0h-437v667h437v-74h-354v-215h347v-74h-347v-230h354v-74zM300 -184q-19 0 -33 14t-14 33t14 33t33 14t32.5 -13.5t13.5 -33.5t-13.5 -33.5t-32.5 -13.5z" />
<glyph unicode="&#x1eb9;" horiz-adv-x="563" d="M293 -12q-108 0 -177 70.5t-69 183.5q0 106 68 179.5t170 73.5q107 0 169.5 -73.5t62.5 -185.5v-19h-391q5 -71 52 -119t122 -48q90 0 149 61l36 -49q-74 -74 -192 -74zM443 272q-1 62 -42 111.5t-117 49.5q-72 0 -113.5 -49t-44.5 -112h317zM286 -184q-19 0 -33 14 t-14 33t14 33t33 14t32.5 -13.5t13.5 -33.5t-13.5 -33.5t-32.5 -13.5z" />
<glyph unicode="&#x1eba;" horiz-adv-x="569" d="M515 0h-437v667h437v-74h-354v-215h347v-74h-347v-230h354v-74zM252 756l-33 9q18 55 73 55q31 0 51.5 -17.5t20.5 -51.5q0 -28 -19 -54h-40q23 23 23 52q0 39 -36 39q-29 0 -40 -32z" />
<glyph unicode="&#x1ebb;" horiz-adv-x="563" d="M293 -12q-108 0 -177 70.5t-69 183.5q0 106 68 179.5t170 73.5q107 0 169.5 -73.5t62.5 -185.5v-19h-391q5 -71 52 -119t122 -48q90 0 149 61l36 -49q-74 -74 -192 -74zM443 272q-1 62 -42 111.5t-117 49.5q-72 0 -113.5 -49t-44.5 -112h317zM244 586l-33 9q18 55 73 55 q31 0 51.5 -17.5t20.5 -51.5q0 -28 -19 -54h-40q23 23 23 52q0 39 -36 39q-29 0 -40 -32z" />
<glyph unicode="&#x1ebc;" horiz-adv-x="569" d="M515 0h-437v667h437v-74h-354v-215h347v-74h-347v-230h354v-74zM357 721q-25 0 -43.5 14.5t-27.5 31.5t-22.5 31.5t-29.5 14.5q-21 0 -34.5 -21.5t-13.5 -64.5h-45q0 60 25.5 97t71.5 37q24 0 42.5 -14.5t28 -31.5t23 -31.5t29.5 -14.5q21 0 34.5 21.5t13.5 64.5h45 q0 -60 -25.5 -97t-71.5 -37z" />
<glyph unicode="&#x1ebd;" horiz-adv-x="563" d="M293 -12q-108 0 -177 70.5t-69 183.5q0 106 68 179.5t170 73.5q107 0 169.5 -73.5t62.5 -185.5v-19h-391q5 -71 52 -119t122 -48q90 0 149 61l36 -49q-74 -74 -192 -74zM443 272q-1 62 -42 111.5t-117 49.5q-72 0 -113.5 -49t-44.5 -112h317zM344 554q-25 0 -43.5 14.5 t-27.5 31.5t-22.5 31.5t-29.5 14.5q-21 0 -34.5 -21.5t-13.5 -64.5h-45q0 60 25.5 97t71.5 37q24 0 42.5 -14.5t28 -31.5t23 -31.5t29.5 -14.5q21 0 34.5 21.5t13.5 64.5h45q0 -60 -25.5 -97t-71.5 -37z" />
<glyph unicode="&#x1ebe;" horiz-adv-x="569" d="M434 682h-51l-83 79l-80 -79h-51l95 108h72zM628 844l-169 -108h-57l148 108h78zM515 0h-437v667h437v-74h-354v-215h347v-74h-347v-230h354v-74z" />
<glyph unicode="&#x1ebf;" horiz-adv-x="563" d="M418 556h-51l-83 106l-80 -106h-51l95 144h72zM604 770l-169 -144h-57l148 144h78zM293 -12q-108 0 -177 70.5t-69 183.5q0 106 68 179.5t170 73.5q107 0 169.5 -73.5t62.5 -185.5v-19h-391q5 -71 52 -119t122 -48q90 0 149 61l36 -49q-74 -74 -192 -74zM443 272 q-1 62 -42 111.5t-117 49.5q-72 0 -113.5 -49t-44.5 -112h317z" />
<glyph unicode="&#x1ec0;" horiz-adv-x="569" d="M433 682h-51l-83 79l-80 -79h-51l95 108h72zM515 0h-437v667h437v-74h-354v-215h347v-74h-347v-230h354v-74zM199 736h-57l-169 108h78z" />
<glyph unicode="&#x1ec1;" horiz-adv-x="563" d="M417 556h-51l-83 106l-80 -106h-51l95 144h72zM293 -12q-108 0 -177 70.5t-69 183.5q0 106 68 179.5t170 73.5q107 0 169.5 -73.5t62.5 -185.5v-19h-391q5 -71 52 -119t122 -48q90 0 149 61l36 -49q-74 -74 -192 -74zM443 272q-1 62 -42 111.5t-117 49.5 q-72 0 -113.5 -49t-44.5 -112h317zM188 626h-57l-169 144h78z" />
<glyph unicode="&#x1ec2;" horiz-adv-x="569" d="M434 682h-51l-83 79l-80 -79h-51l95 108h72zM515 0h-437v667h437v-74h-354v-215h347v-74h-347v-230h354v-74zM399 788l-33 7q18 41 73 41q31 0 51.5 -13t20.5 -38q0 -21 -19 -41h-40q23 18 23 39q0 29 -36 29q-29 0 -40 -24z" />
<glyph unicode="&#x1ec3;" horiz-adv-x="563" d="M416 556h-51l-83 106l-80 -106h-51l95 144h72zM293 -12q-108 0 -177 70.5t-69 183.5q0 106 68 179.5t170 73.5q107 0 169.5 -73.5t62.5 -185.5v-19h-391q5 -71 52 -119t122 -48q90 0 149 61l36 -49q-74 -74 -192 -74zM443 272q-1 62 -42 111.5t-117 49.5 q-72 0 -113.5 -49t-44.5 -112h317zM333 726l-33 9q18 55 73 55q31 0 51.5 -17.5t20.5 -51.5q0 -28 -19 -54h-40q23 23 23 52q0 39 -36 39q-29 0 -40 -32z" />
<glyph unicode="&#x1ec4;" horiz-adv-x="569" d="M434 678h-51l-83 53l-80 -53h-51l95 72h72zM515 0h-437v667h437v-74h-354v-215h347v-74h-347v-230h354v-74zM359 757q-40 0 -71 23t-52 23q-48 0 -48 -43h-45q0 30 25.5 48.5t71.5 18.5q39 0 70.5 -23t52.5 -23q48 0 48 43h45q0 -30 -25.5 -48.5t-71.5 -18.5z" />
<glyph unicode="&#x1ec5;" horiz-adv-x="563" d="M416 523h-51l-83 106l-80 -106h-51l95 144h72zM293 -12q-108 0 -177 70.5t-69 183.5q0 106 68 179.5t170 73.5q107 0 169.5 -73.5t62.5 -185.5v-19h-391q5 -71 52 -119t122 -48q90 0 149 61l36 -49q-74 -74 -192 -74zM443 272q-1 62 -42 111.5t-117 49.5 q-72 0 -113.5 -49t-44.5 -112h317zM340 682q-25 0 -43.5 14.5t-27.5 31.5t-22.5 31.5t-29.5 14.5q-21 0 -34.5 -21.5t-13.5 -64.5h-45q0 60 25.5 97t71.5 37q24 0 42.5 -14.5t28 -31.5t23 -31.5t29.5 -14.5q21 0 34.5 21.5t13.5 64.5h45q0 -60 -25.5 -97t-71.5 -37z" />
<glyph unicode="&#x1ec6;" horiz-adv-x="569" d="M428 723h-51l-83 106l-80 -106h-51l95 144h72zM515 0h-437v667h437v-74h-354v-215h347v-74h-347v-230h354v-74zM300 -184q-19 0 -33 14t-14 33t14 33t33 14t32.5 -13.5t13.5 -33.5t-13.5 -33.5t-32.5 -13.5z" />
<glyph unicode="&#x1ec7;" horiz-adv-x="563" d="M419 556h-51l-83 106l-80 -106h-51l95 144h72zM293 -12q-108 0 -177 70.5t-69 183.5q0 106 68 179.5t170 73.5q107 0 169.5 -73.5t62.5 -185.5v-19h-391q5 -71 52 -119t122 -48q90 0 149 61l36 -49q-74 -74 -192 -74zM443 272q-1 62 -42 111.5t-117 49.5 q-72 0 -113.5 -49t-44.5 -112h317zM286 -184q-19 0 -33 14t-14 33t14 33t33 14t32.5 -13.5t13.5 -33.5t-13.5 -33.5t-32.5 -13.5z" />
<glyph unicode="&#x1ec8;" horiz-adv-x="239" d="M161 0h-83v667h83v-667zM80 756l-33 9q18 55 73 55q31 0 51.5 -17.5t20.5 -51.5q0 -28 -19 -54h-40q23 23 23 52q0 39 -36 39q-29 0 -40 -32z" />
<glyph unicode="&#x1ec9;" horiz-adv-x="225" d="M150 0h-75v483h75v-483zM73 586l-33 9q18 55 73 55q31 0 51.5 -17.5t20.5 -51.5q0 -28 -19 -54h-40q23 23 23 52q0 39 -36 39q-29 0 -40 -32z" />
<glyph unicode="&#x1eca;" horiz-adv-x="239" d="M161 0h-83v667h83v-667zM120 -184q-19 0 -33 14t-14 33t14 33t33 14t32.5 -13.5t13.5 -33.5t-13.5 -33.5t-32.5 -13.5z" />
<glyph unicode="&#x1ecb;" horiz-adv-x="225" d="M112 552q-20 0 -35 14.5t-15 35.5t15 36t35 15q21 0 36 -15t15 -36t-15 -35.5t-36 -14.5zM150 0h-75v483h75v-483zM113 -184q-19 0 -33 14t-14 33t14 33t33 14t32.5 -13.5t13.5 -33.5t-13.5 -33.5t-32.5 -13.5z" />
<glyph unicode="&#x1ecc;" horiz-adv-x="765" d="M382 -12q-147 0 -239 98t-92 247t92 247t239 98q146 0 238.5 -98t92.5 -247t-92.5 -247t-238.5 -98zM382 62q110 0 177.5 76.5t67.5 194.5q0 119 -67.5 195t-177.5 76q-111 0 -178 -76t-67 -195q0 -118 67 -194.5t178 -76.5zM384 -184q-19 0 -33 14t-14 33t14 33t33 14 t32.5 -13.5t13.5 -33.5t-13.5 -33.5t-32.5 -13.5z" />
<glyph unicode="&#x1ecd;" d="M286 -12q-108 0 -173.5 73t-65.5 181t65.5 180.5t173.5 72.5t173.5 -72.5t65.5 -180.5t-65.5 -181t-173.5 -73zM286 55q74 0 117 54.5t43 132.5t-43 132t-117 54t-117.5 -54.5t-43.5 -131.5q0 -78 43.5 -132.5t117.5 -54.5zM286 -184q-19 0 -33 14t-14 33t14 33t33 14 t32.5 -13.5t13.5 -33.5t-13.5 -33.5t-32.5 -13.5z" />
<glyph unicode="&#x1ece;" horiz-adv-x="765" d="M382 -12q-147 0 -239 98t-92 247t92 247t239 98q146 0 238.5 -98t92.5 -247t-92.5 -247t-238.5 -98zM382 62q110 0 177.5 76.5t67.5 194.5q0 119 -67.5 195t-177.5 76q-111 0 -178 -76t-67 -195q0 -118 67 -194.5t178 -76.5zM341 756l-33 9q18 55 73 55q31 0 51.5 -17.5 t20.5 -51.5q0 -28 -19 -54h-40q23 23 23 52q0 39 -36 39q-29 0 -40 -32z" />
<glyph unicode="&#x1ecf;" d="M286 -12q-108 0 -173.5 73t-65.5 181t65.5 180.5t173.5 72.5t173.5 -72.5t65.5 -180.5t-65.5 -181t-173.5 -73zM286 55q74 0 117 54.5t43 132.5t-43 132t-117 54t-117.5 -54.5t-43.5 -131.5q0 -78 43.5 -132.5t117.5 -54.5zM246 586l-33 9q18 55 73 55q31 0 51.5 -17.5 t20.5 -51.5q0 -28 -19 -54h-40q23 23 23 52q0 39 -36 39q-29 0 -40 -32z" />
<glyph unicode="&#x1ed0;" horiz-adv-x="765" d="M513 682h-51l-83 79l-80 -79h-51l95 108h72zM707 844l-169 -108h-57l148 108h78zM382 -12q-147 0 -239 98t-92 247t92 247t239 98q146 0 238.5 -98t92.5 -247t-92.5 -247t-238.5 -98zM382 62q110 0 177.5 76.5t67.5 194.5q0 119 -67.5 195t-177.5 76q-111 0 -178 -76 t-67 -195q0 -118 67 -194.5t178 -76.5z" />
<glyph unicode="&#x1ed1;" d="M419 556h-51l-83 106l-80 -106h-51l95 144h72zM606 770l-169 -144h-57l148 144h78zM286 -12q-108 0 -173.5 73t-65.5 181t65.5 180.5t173.5 72.5t173.5 -72.5t65.5 -180.5t-65.5 -181t-173.5 -73zM286 55q74 0 117 54.5t43 132.5t-43 132t-117 54t-117.5 -54.5 t-43.5 -131.5q0 -78 43.5 -132.5t117.5 -54.5z" />
<glyph unicode="&#x1ed2;" horiz-adv-x="765" d="M512 682h-51l-83 79l-80 -79h-51l95 108h72zM382 -12q-147 0 -239 98t-92 247t92 247t239 98q146 0 238.5 -98t92.5 -247t-92.5 -247t-238.5 -98zM382 62q110 0 177.5 76.5t67.5 194.5q0 119 -67.5 195t-177.5 76q-111 0 -178 -76t-67 -195q0 -118 67 -194.5t178 -76.5z M278 736h-57l-169 108h78z" />
<glyph unicode="&#x1ed3;" d="M419 556h-51l-83 106l-80 -106h-51l95 144h72zM286 -12q-108 0 -173.5 73t-65.5 181t65.5 180.5t173.5 72.5t173.5 -72.5t65.5 -180.5t-65.5 -181t-173.5 -73zM286 55q74 0 117 54.5t43 132.5t-43 132t-117 54t-117.5 -54.5t-43.5 -131.5q0 -78 43.5 -132.5t117.5 -54.5z M190 626h-57l-169 144h78z" />
<glyph unicode="&#x1ed4;" horiz-adv-x="765" d="M512 682h-51l-83 79l-80 -79h-51l95 108h72zM382 -12q-147 0 -239 98t-92 247t92 247t239 98q146 0 238.5 -98t92.5 -247t-92.5 -247t-238.5 -98zM382 62q110 0 177.5 76.5t67.5 194.5q0 119 -67.5 195t-177.5 76q-111 0 -178 -76t-67 -195q0 -118 67 -194.5t178 -76.5z M477 788l-33 7q18 41 73 41q31 0 51.5 -13t20.5 -38q0 -21 -19 -41h-40q23 18 23 39q0 29 -36 29q-29 0 -40 -24z" />
<glyph unicode="&#x1ed5;" d="M419 556h-51l-83 106l-80 -106h-51l95 144h72zM286 -12q-108 0 -173.5 73t-65.5 181t65.5 180.5t173.5 72.5t173.5 -72.5t65.5 -180.5t-65.5 -181t-173.5 -73zM286 55q74 0 117 54.5t43 132.5t-43 132t-117 54t-117.5 -54.5t-43.5 -131.5q0 -78 43.5 -132.5t117.5 -54.5z M335 726l-33 9q18 55 73 55q31 0 51.5 -17.5t20.5 -51.5q0 -28 -19 -54h-40q23 23 23 52q0 39 -36 39q-29 0 -40 -32z" />
<glyph unicode="&#x1ed6;" horiz-adv-x="765" d="M514 678h-51l-83 53l-80 -53h-51l95 72h72zM382 -12q-147 0 -239 98t-92 247t92 247t239 98q146 0 238.5 -98t92.5 -247t-92.5 -247t-238.5 -98zM382 62q110 0 177.5 76.5t67.5 194.5q0 119 -67.5 195t-177.5 76q-111 0 -178 -76t-67 -195q0 -118 67 -194.5t178 -76.5z M439 757q-40 0 -71 23t-52 23q-48 0 -48 -43h-45q0 30 25.5 48.5t71.5 18.5q39 0 70.5 -23t52.5 -23q48 0 48 43h45q0 -30 -25.5 -48.5t-71.5 -18.5z" />
<glyph unicode="&#x1ed7;" d="M417 523h-51l-83 106l-80 -106h-51l95 144h72zM286 -12q-108 0 -173.5 73t-65.5 181t65.5 180.5t173.5 72.5t173.5 -72.5t65.5 -180.5t-65.5 -181t-173.5 -73zM286 55q74 0 117 54.5t43 132.5t-43 132t-117 54t-117.5 -54.5t-43.5 -131.5q0 -78 43.5 -132.5t117.5 -54.5z M342 682q-25 0 -43.5 14.5t-27.5 31.5t-22.5 31.5t-29.5 14.5q-21 0 -34.5 -21.5t-13.5 -64.5h-45q0 60 25.5 97t71.5 37q24 0 42.5 -14.5t28 -31.5t23 -31.5t29.5 -14.5q21 0 34.5 21.5t13.5 64.5h45q0 -60 -25.5 -97t-71.5 -37z" />
<glyph unicode="&#x1ed8;" horiz-adv-x="765" d="M517 723h-51l-83 106l-80 -106h-51l95 144h72zM382 -12q-147 0 -239 98t-92 247t92 247t239 98q146 0 238.5 -98t92.5 -247t-92.5 -247t-238.5 -98zM382 62q110 0 177.5 76.5t67.5 194.5q0 119 -67.5 195t-177.5 76q-111 0 -178 -76t-67 -195q0 -118 67 -194.5t178 -76.5 zM385 -184q-19 0 -33 14t-14 33t14 33t33 14t32.5 -13.5t13.5 -33.5t-13.5 -33.5t-32.5 -13.5z" />
<glyph unicode="&#x1ed9;" d="M418 556h-51l-83 106l-80 -106h-51l95 144h72zM286 -12q-108 0 -173.5 73t-65.5 181t65.5 180.5t173.5 72.5t173.5 -72.5t65.5 -180.5t-65.5 -181t-173.5 -73zM286 55q74 0 117 54.5t43 132.5t-43 132t-117 54t-117.5 -54.5t-43.5 -131.5q0 -78 43.5 -132.5t117.5 -54.5z M286 -184q-19 0 -33 14t-14 33t14 33t33 14t32.5 -13.5t13.5 -33.5t-13.5 -33.5t-32.5 -13.5z" />
<glyph unicode="&#x1eda;" horiz-adv-x="765" d="M552 867l-169 -144h-57l148 144h78zM382 -12q-147 0 -239 98t-92 247t92 247t239 98q154 0 249 -110q41 34 46 76q-2 -2 -11 -2q-17 0 -28 12t-11 29q0 18 12 31t30 13q21 0 35.5 -17t14.5 -46q0 -37 -18.5 -71t-46.5 -55q59 -91 59 -205q0 -149 -92.5 -247t-238.5 -98z M382 62q110 0 177.5 76.5t67.5 194.5q0 119 -67.5 195t-177.5 76q-111 0 -178 -76t-67 -195q0 -118 67 -194.5t178 -76.5z" />
<glyph unicode="&#x1edb;" d="M455 700l-169 -144h-57l148 144h78zM527 530q0 -71 -58 -120q56 -68 56 -168q0 -108 -65.5 -181t-173.5 -73t-173.5 73t-65.5 181t65.5 180.5t173.5 72.5q92 0 157 -57q37 32 42 72q-1 0 -5 -0.5t-6 -0.5q-17 0 -28.5 11.5t-11.5 29.5q0 17 12.5 30t30.5 13 q21 0 35.5 -17t14.5 -46zM286 55q74 0 117 54.5t43 132.5t-43 132t-117 54t-117.5 -54.5t-43.5 -131.5q0 -78 43.5 -132.5t117.5 -54.5z" />
<glyph unicode="&#x1edc;" horiz-adv-x="765" d="M382 -12q-147 0 -239 98t-92 247t92 247t239 98q154 0 249 -110q41 34 46 76q-2 -2 -11 -2q-17 0 -28 12t-11 29q0 18 12 31t30 13q21 0 35.5 -17t14.5 -46q0 -37 -18.5 -71t-46.5 -55q59 -91 59 -205q0 -149 -92.5 -247t-238.5 -98zM382 62q110 0 177.5 76.5t67.5 194.5 q0 119 -67.5 195t-177.5 76q-111 0 -178 -76t-67 -195q0 -118 67 -194.5t178 -76.5zM440 723h-57l-169 144h78z" />
<glyph unicode="&#x1edd;" d="M527 530q0 -71 -58 -120q56 -68 56 -168q0 -108 -65.5 -181t-173.5 -73t-173.5 73t-65.5 181t65.5 180.5t173.5 72.5q92 0 157 -57q37 32 42 72q-1 0 -5 -0.5t-6 -0.5q-17 0 -28.5 11.5t-11.5 29.5q0 17 12.5 30t30.5 13q21 0 35.5 -17t14.5 -46zM286 55q74 0 117 54.5 t43 132.5t-43 132t-117 54t-117.5 -54.5t-43.5 -131.5q0 -78 43.5 -132.5t117.5 -54.5zM343 556h-57l-169 144h78z" />
<glyph unicode="&#x1ede;" horiz-adv-x="765" d="M382 -12q-147 0 -239 98t-92 247t92 247t239 98q154 0 249 -110q41 34 46 76q-2 -2 -11 -2q-17 0 -28 12t-11 29q0 18 12 31t30 13q21 0 35.5 -17t14.5 -46q0 -37 -18.5 -71t-46.5 -55q59 -91 59 -205q0 -149 -92.5 -247t-238.5 -98zM382 62q110 0 177.5 76.5t67.5 194.5 q0 119 -67.5 195t-177.5 76q-111 0 -178 -76t-67 -195q0 -118 67 -194.5t178 -76.5zM342 756l-33 9q18 55 73 55q31 0 51.5 -17.5t20.5 -51.5q0 -28 -19 -54h-40q23 23 23 52q0 39 -36 39q-29 0 -40 -32z" />
<glyph unicode="&#x1edf;" d="M527 530q0 -71 -58 -120q56 -68 56 -168q0 -108 -65.5 -181t-173.5 -73t-173.5 73t-65.5 181t65.5 180.5t173.5 72.5q92 0 157 -57q37 32 42 72q-1 0 -5 -0.5t-6 -0.5q-17 0 -28.5 11.5t-11.5 29.5q0 17 12.5 30t30.5 13q21 0 35.5 -17t14.5 -46zM286 55q74 0 117 54.5 t43 132.5t-43 132t-117 54t-117.5 -54.5t-43.5 -131.5q0 -78 43.5 -132.5t117.5 -54.5zM246 586l-33 9q18 55 73 55q31 0 51.5 -17.5t20.5 -51.5q0 -28 -19 -54h-40q23 23 23 52q0 39 -36 39q-29 0 -40 -32z" />
<glyph unicode="&#x1ee0;" horiz-adv-x="765" d="M382 -12q-147 0 -239 98t-92 247t92 247t239 98q154 0 249 -110q41 34 46 76q-2 -2 -11 -2q-17 0 -28 12t-11 29q0 18 12 31t30 13q21 0 35.5 -17t14.5 -46q0 -37 -18.5 -71t-46.5 -55q59 -91 59 -205q0 -149 -92.5 -247t-238.5 -98zM382 62q110 0 177.5 76.5t67.5 194.5 q0 119 -67.5 195t-177.5 76q-111 0 -178 -76t-67 -195q0 -118 67 -194.5t178 -76.5zM442 721q-25 0 -43.5 14.5t-27.5 31.5t-22.5 31.5t-29.5 14.5q-21 0 -34.5 -21.5t-13.5 -64.5h-45q0 60 25.5 97t71.5 37q24 0 42.5 -14.5t28 -31.5t23 -31.5t29.5 -14.5q21 0 34.5 21.5 t13.5 64.5h45q0 -60 -25.5 -97t-71.5 -37z" />
<glyph unicode="&#x1ee1;" d="M527 530q0 -71 -58 -120q56 -68 56 -168q0 -108 -65.5 -181t-173.5 -73t-173.5 73t-65.5 181t65.5 180.5t173.5 72.5q92 0 157 -57q37 32 42 72q-1 0 -5 -0.5t-6 -0.5q-17 0 -28.5 11.5t-11.5 29.5q0 17 12.5 30t30.5 13q21 0 35.5 -17t14.5 -46zM286 55q74 0 117 54.5 t43 132.5t-43 132t-117 54t-117.5 -54.5t-43.5 -131.5q0 -78 43.5 -132.5t117.5 -54.5zM345 554q-25 0 -43.5 14.5t-27.5 31.5t-22.5 31.5t-29.5 14.5q-21 0 -34.5 -21.5t-13.5 -64.5h-45q0 60 25.5 97t71.5 37q24 0 42.5 -14.5t28 -31.5t23 -31.5t29.5 -14.5 q21 0 34.5 21.5t13.5 64.5h45q0 -60 -25.5 -97t-71.5 -37z" />
<glyph unicode="&#x1ee2;" horiz-adv-x="765" d="M382 -12q-147 0 -239 98t-92 247t92 247t239 98q154 0 249 -110q41 34 46 76q-2 -2 -11 -2q-17 0 -28 12t-11 29q0 18 12 31t30 13q21 0 35.5 -17t14.5 -46q0 -37 -18.5 -71t-46.5 -55q59 -91 59 -205q0 -149 -92.5 -247t-238.5 -98zM382 62q110 0 177.5 76.5t67.5 194.5 q0 119 -67.5 195t-177.5 76q-111 0 -178 -76t-67 -195q0 -118 67 -194.5t178 -76.5zM384 -184q-19 0 -33 14t-14 33t14 33t33 14t32.5 -13.5t13.5 -33.5t-13.5 -33.5t-32.5 -13.5z" />
<glyph unicode="&#x1ee3;" d="M527 530q0 -71 -58 -120q56 -68 56 -168q0 -108 -65.5 -181t-173.5 -73t-173.5 73t-65.5 181t65.5 180.5t173.5 72.5q92 0 157 -57q37 32 42 72q-1 0 -5 -0.5t-6 -0.5q-17 0 -28.5 11.5t-11.5 29.5q0 17 12.5 30t30.5 13q21 0 35.5 -17t14.5 -46zM286 55q74 0 117 54.5 t43 132.5t-43 132t-117 54t-117.5 -54.5t-43.5 -131.5q0 -78 43.5 -132.5t117.5 -54.5zM286 -184q-19 0 -33 14t-14 33t14 33t33 14t32.5 -13.5t13.5 -33.5t-13.5 -33.5t-32.5 -13.5z" />
<glyph unicode="&#x1ee4;" horiz-adv-x="700" d="M350 -12q-133 0 -202.5 72.5t-69.5 198.5v408h83v-406q0 -93 49 -146t140 -53t140 53t49 146v406h83v-407q0 -127 -69.5 -199.5t-202.5 -72.5zM354 -184q-19 0 -33 14t-14 33t14 33t33 14t32.5 -13.5t13.5 -33.5t-13.5 -33.5t-32.5 -13.5z" />
<glyph unicode="&#x1ee5;" horiz-adv-x="551" d="M476 0h-75v68q-30 -34 -75.5 -57t-96.5 -23q-154 0 -154 154v341h75v-318q0 -60 27.5 -85t80.5 -25q42 0 81.5 21t61.5 52v355h75v-483zM278 -184q-19 0 -33 14t-14 33t14 33t33 14t32.5 -13.5t13.5 -33.5t-13.5 -33.5t-32.5 -13.5z" />
<glyph unicode="&#x1ee6;" horiz-adv-x="700" d="M350 -12q-133 0 -202.5 72.5t-69.5 198.5v408h83v-406q0 -93 49 -146t140 -53t140 53t49 146v406h83v-407q0 -127 -69.5 -199.5t-202.5 -72.5zM311 756l-33 9q18 55 73 55q31 0 51.5 -17.5t20.5 -51.5q0 -28 -19 -54h-40q23 23 23 52q0 39 -36 39q-29 0 -40 -32z" />
<glyph unicode="&#x1ee7;" horiz-adv-x="551" d="M476 0h-75v68q-30 -34 -75.5 -57t-96.5 -23q-154 0 -154 154v341h75v-318q0 -60 27.5 -85t80.5 -25q42 0 81.5 21t61.5 52v355h75v-483zM236 586l-33 9q18 55 73 55q31 0 51.5 -17.5t20.5 -51.5q0 -28 -19 -54h-40q23 23 23 52q0 39 -36 39q-29 0 -40 -32z" />
<glyph unicode="&#x1ee8;" horiz-adv-x="700" d="M519 867l-169 -144h-57l148 144h78zM738 728q0 -48 -31 -90t-85 -64v-314q0 -127 -69.5 -199.5t-202.5 -72.5t-202.5 72.5t-69.5 198.5v408h83v-406q0 -93 49 -146t140 -53t140 53t49 146v406h83v-54q29 15 50 41.5t23 53.5h-5q-4 -1 -6 -1q-17 0 -28 11.5t-11 29.5 t12.5 30.5t30.5 12.5q21 0 35.5 -17t14.5 -46z" />
<glyph unicode="&#x1ee9;" horiz-adv-x="551" d="M444 700l-169 -144h-57l148 144h78zM476 0h-75v68q-30 -34 -75.5 -57t-96.5 -23q-154 0 -154 154v341h75v-318q0 -60 27.5 -85t80.5 -25q42 0 81.5 21t61.5 52v355h75v-48q48 36 51 81h-5q-4 -1 -6 -1q-17 0 -28.5 11.5t-11.5 29.5q0 17 12.5 30t30.5 13q21 0 36 -17 t15 -46q0 -43 -25.5 -82t-68.5 -62v-392z" />
<glyph unicode="&#x1eea;" horiz-adv-x="700" d="M407 723h-57l-169 144h78zM738 728q0 -48 -31 -90t-85 -64v-314q0 -127 -69.5 -199.5t-202.5 -72.5t-202.5 72.5t-69.5 198.5v408h83v-406q0 -93 49 -146t140 -53t140 53t49 146v406h83v-54q29 15 50 41.5t23 53.5h-5q-4 -1 -6 -1q-17 0 -28 11.5t-11 29.5t12.5 30.5 t30.5 12.5q21 0 35.5 -17t14.5 -46z" />
<glyph unicode="&#x1eeb;" horiz-adv-x="551" d="M332 556h-57l-169 144h78zM476 0h-75v68q-30 -34 -75.5 -57t-96.5 -23q-154 0 -154 154v341h75v-318q0 -60 27.5 -85t80.5 -25q42 0 81.5 21t61.5 52v355h75v-48q48 36 51 81h-5q-4 -1 -6 -1q-17 0 -28.5 11.5t-11.5 29.5q0 17 12.5 30t30.5 13q21 0 36 -17t15 -46 q0 -43 -25.5 -82t-68.5 -62v-392z" />
<glyph unicode="&#x1eec;" horiz-adv-x="700" d="M311 756l-33 9q18 55 73 55q31 0 51.5 -17.5t20.5 -51.5q0 -28 -19 -54h-40q23 23 23 52q0 39 -36 39q-29 0 -40 -32zM738 728q0 -48 -31 -90t-85 -64v-314q0 -127 -69.5 -199.5t-202.5 -72.5t-202.5 72.5t-69.5 198.5v408h83v-406q0 -93 49 -146t140 -53t140 53t49 146 v406h83v-54q29 15 50 41.5t23 53.5h-5q-4 -1 -6 -1q-17 0 -28 11.5t-11 29.5t12.5 30.5t30.5 12.5q21 0 35.5 -17t14.5 -46z" />
<glyph unicode="&#x1eed;" horiz-adv-x="551" d="M236 586l-33 9q18 55 73 55q31 0 51.5 -17.5t20.5 -51.5q0 -28 -19 -54h-40q23 23 23 52q0 39 -36 39q-29 0 -40 -32zM476 0h-75v68q-30 -34 -75.5 -57t-96.5 -23q-154 0 -154 154v341h75v-318q0 -60 27.5 -85t80.5 -25q42 0 81.5 21t61.5 52v355h75v-48q48 36 51 81h-5 q-4 -1 -6 -1q-17 0 -28.5 11.5t-11.5 29.5q0 17 12.5 30t30.5 13q21 0 36 -17t15 -46q0 -43 -25.5 -82t-68.5 -62v-392z" />
<glyph unicode="&#x1eee;" horiz-adv-x="700" d="M738 728q0 -48 -31 -90t-85 -64v-314q0 -127 -69.5 -199.5t-202.5 -72.5t-202.5 72.5t-69.5 198.5v408h83v-406q0 -93 49 -146t140 -53t140 53t49 146v406h83v-54q29 15 50 41.5t23 53.5h-5q-4 -1 -6 -1q-17 0 -28 11.5t-11 29.5t12.5 30.5t30.5 12.5q21 0 35.5 -17 t14.5 -46zM410 721q-25 0 -43.5 14.5t-27.5 31.5t-22.5 31.5t-29.5 14.5q-21 0 -34.5 -21.5t-13.5 -64.5h-45q0 60 25.5 97t71.5 37q24 0 42.5 -14.5t28 -31.5t23 -31.5t29.5 -14.5q21 0 34.5 21.5t13.5 64.5h45q0 -60 -25.5 -97t-71.5 -37z" />
<glyph unicode="&#x1eef;" horiz-adv-x="551" d="M476 0h-75v68q-30 -34 -75.5 -57t-96.5 -23q-154 0 -154 154v341h75v-318q0 -60 27.5 -85t80.5 -25q42 0 81.5 21t61.5 52v355h75v-48q48 36 51 81h-5q-4 -1 -6 -1q-17 0 -28.5 11.5t-11.5 29.5q0 17 12.5 30t30.5 13q21 0 36 -17t15 -46q0 -43 -25.5 -82t-68.5 -62v-392 zM335 554q-25 0 -43.5 14.5t-27.5 31.5t-22.5 31.5t-29.5 14.5q-21 0 -34.5 -21.5t-13.5 -64.5h-45q0 60 25.5 97t71.5 37q24 0 42.5 -14.5t28 -31.5t23 -31.5t29.5 -14.5q21 0 34.5 21.5t13.5 64.5h45q0 -60 -25.5 -97t-71.5 -37z" />
<glyph unicode="&#x1ef0;" horiz-adv-x="700" d="M354 -184q-19 0 -33 14t-14 33t14 33t33 14t32.5 -13.5t13.5 -33.5t-13.5 -33.5t-32.5 -13.5zM738 728q0 -48 -31 -90t-85 -64v-314q0 -127 -69.5 -199.5t-202.5 -72.5t-202.5 72.5t-69.5 198.5v408h83v-406q0 -93 49 -146t140 -53t140 53t49 146v406h83v-54 q29 15 50 41.5t23 53.5h-5q-4 -1 -6 -1q-17 0 -28 11.5t-11 29.5t12.5 30.5t30.5 12.5q21 0 35.5 -17t14.5 -46z" />
<glyph unicode="&#x1ef1;" horiz-adv-x="551" d="M278 -184q-19 0 -33 14t-14 33t14 33t33 14t32.5 -13.5t13.5 -33.5t-13.5 -33.5t-32.5 -13.5zM476 0h-75v68q-30 -34 -75.5 -57t-96.5 -23q-154 0 -154 154v341h75v-318q0 -60 27.5 -85t80.5 -25q42 0 81.5 21t61.5 52v355h75v-48q48 36 51 81h-5q-4 -1 -6 -1 q-17 0 -28.5 11.5t-11.5 29.5q0 17 12.5 30t30.5 13q21 0 36 -17t15 -46q0 -43 -25.5 -82t-68.5 -62v-392z" />
<glyph unicode="&#x1ef2;" horiz-adv-x="626" d="M355 0h-83v282l-263 385h97l207 -310l207 310h97l-262 -385v-282zM370 723h-57l-169 144h78z" />
<glyph unicode="&#x1ef3;" horiz-adv-x="490" d="M48 -189l12 68q18 -8 41 -8q26 0 43 11t29 40l32 73l-202 488h81l161 -396l160 396h82l-242 -581q-40 -96 -142 -98q-30 0 -55 7zM302 556h-57l-169 144h78z" />
<glyph unicode="&#x2009;" horiz-adv-x="51" />
<glyph unicode="&#x2013;" horiz-adv-x="593" d="M563 209h-533v66h533v-66z" />
<glyph unicode="&#x2014;" horiz-adv-x="833" d="M803 209h-773v66h773v-66z" />
<glyph unicode="&#x2015;" horiz-adv-x="593" d="M563 209h-533v66h533v-66z" />
<glyph unicode="&#x2018;" horiz-adv-x="230" d="M47 527q0 44 22.5 84t58.5 66l37 -30q-24 -16 -42.5 -42.5t-21.5 -50.5q1 0 6 0.5t7 0.5q21 0 35 -14.5t14 -36.5t-15.5 -37.5t-37.5 -15.5q-26 0 -44.5 20.5t-18.5 55.5z" />
<glyph unicode="&#x2019;" horiz-adv-x="230" d="M176 601q0 -44 -23 -84.5t-59 -66.5l-37 31q24 16 43 42.5t22 50.5q-4 -2 -14 -2q-21 0 -34.5 14.5t-13.5 36.5t15.5 38t37.5 16q26 0 44.5 -20.5t18.5 -55.5z" />
<glyph unicode="&#x201a;" horiz-adv-x="230" d="M176 24q0 -44 -23 -84.5t-59 -66.5l-37 31q25 16 43.5 42.5t21.5 50.5q-4 -2 -14 -2q-21 0 -34.5 14.5t-13.5 36.5t15.5 38t37.5 16q26 0 44.5 -20.5t18.5 -55.5z" />
<glyph unicode="&#x201b;" horiz-adv-x="230" d="M54 601q0 35 18 55.5t44 20.5q22 0 38 -16t16 -38t-14 -36.5t-35 -14.5q-9 0 -13 2q3 -24 21.5 -50.5t42.5 -42.5l-37 -31q-36 26 -58.5 66.5t-22.5 84.5z" />
<glyph unicode="&#x201c;" horiz-adv-x="390" d="M54 527q0 44 22.5 84t58.5 66l37 -30q-24 -16 -43 -42.5t-21 -50.5h5q5 1 8 1q21 0 34.5 -14.5t13.5 -36.5t-15.5 -37.5t-37.5 -15.5q-26 0 -44 20.5t-18 55.5zM214 527q0 44 22.5 84t58.5 66l37 -30q-24 -16 -42.5 -42.5t-21.5 -50.5h5q5 1 8 1q21 0 35 -14.5t14 -36.5 t-16 -37.5t-38 -15.5q-26 0 -44 20.5t-18 55.5z" />
<glyph unicode="&#x201d;" horiz-adv-x="390" d="M336 601q0 -44 -23 -84.5t-58 -66.5l-37 31q24 16 42.5 42.5t21.5 50.5q-4 -2 -13 -2q-21 0 -35 14.5t-14 36.5t15.5 38t37.5 16q26 0 44.5 -20.5t18.5 -55.5zM176 601q0 -44 -23 -84.5t-59 -66.5l-37 31q24 16 43 42.5t22 50.5q-4 -2 -14 -2q-21 0 -34.5 14.5 t-13.5 36.5t15.5 38t37.5 16q26 0 44.5 -20.5t18.5 -55.5z" />
<glyph unicode="&#x201e;" horiz-adv-x="390" d="M176 24q0 -44 -23 -84.5t-59 -66.5l-37 31q25 16 43.5 42.5t21.5 50.5q-4 -2 -14 -2q-21 0 -34.5 14.5t-13.5 36.5t15.5 38t37.5 16q26 0 44.5 -20.5t18.5 -55.5zM336 24q0 -44 -23 -84.5t-58 -66.5l-37 31q24 16 42.5 42.5t21.5 50.5q-4 -2 -13 -2q-21 0 -35 14.5 t-14 36.5t15.5 38t37.5 16q26 0 44.5 -20.5t18.5 -55.5z" />
<glyph unicode="&#x2020;" horiz-adv-x="263" d="M240 531l-89 4l4 -208h-48l5 208l-89 -4v43l89 -3l-5 106h48l-4 -106l89 3v-43z" />
<glyph unicode="&#x2021;" horiz-adv-x="263" d="M240 574v-43l-89 4v-213l89 4v-43l-89 3l4 -106h-48l4 106l-88 -3v43l88 -4v213l-88 -4v43l88 -3l-4 106h48l-4 -106z" />
<glyph unicode="&#x2022;" horiz-adv-x="358" d="M288 242q0 -44 -32 -75.5t-76 -31.5t-76 31.5t-32 75.5t32 76t76 32t76 -32t32 -76z" />
<glyph unicode="&#x2026;" horiz-adv-x="690" d="M169 45q0 -22 -16.5 -38.5t-38.5 -16.5t-38 16.5t-16 38.5q0 23 16 39t38 16t38.5 -16t16.5 -39zM400 45q0 -22 -17 -38.5t-39 -16.5t-38 16.5t-16 38.5q0 23 16 39t38 16q23 0 39.5 -16.5t16.5 -38.5zM630 45q0 -22 -16.5 -38.5t-38.5 -16.5t-38.5 16.5t-16.5 38.5 q0 23 16 39t39 16t39 -16t16 -39z" />
<glyph unicode="&#x2030;" horiz-adv-x="1083" d="M353 511q0 -70 -45.5 -116.5t-116.5 -46.5t-115.5 46.5t-44.5 116.5q0 71 45 118.5t115 47.5q71 0 116.5 -47.5t45.5 -118.5zM609 667l-427 -667h-54l426 667h55zM700 151q0 -70 -45 -116.5t-116 -46.5t-115.5 46.5t-44.5 116.5q0 71 45 118.5t115 47.5q71 0 116 -47.5 t45 -118.5zM293 511q0 51 -28.5 85t-73.5 34q-44 0 -72 -34t-28 -85q0 -50 28 -83t72 -33q45 0 73.5 33t28.5 83zM641 151q0 51 -28.5 85t-73.5 34t-73 -34t-28 -85q0 -50 28 -83t73 -33t73.5 33t28.5 83zM1052 151q0 -70 -45 -116.5t-116 -46.5t-115.5 46.5t-44.5 116.5 q0 71 45 118.5t115 47.5q71 0 116 -47.5t45 -118.5zM993 151q0 51 -28.5 85t-73.5 34t-72.5 -33.5t-27.5 -85.5q0 -50 28 -83t72 -33q45 0 73.5 33t28.5 83z" />
<glyph unicode="&#x2039;" horiz-adv-x="295" d="M265 63h-75l-160 180l160 177h75l-160 -177z" />
<glyph unicode="&#x203a;" horiz-adv-x="295" d="M265 243l-160 -180h-75l160 180l-160 177h75z" />
<glyph unicode="&#x203e;" horiz-adv-x="363" d="M363 572h-363v48h363v-48z" />
<glyph unicode="&#x2044;" horiz-adv-x="138" d="M310 667l-427 -667h-55l426 667h56z" />
<glyph unicode="&#x2070;" horiz-adv-x="388" d="M355 621q0 -83 -41 -145t-120 -62q-80 0 -120.5 61.5t-40.5 145.5t40.5 145t120.5 61q79 0 120 -61.5t41 -144.5zM293 621q0 68 -24 112.5t-75 44.5q-52 0 -76 -44.5t-24 -112.5t24 -113t76 -45q51 0 75 45t24 113z" />
<glyph unicode="&#x2074;" horiz-adv-x="388" d="M352 521h-58v-100h-59v100h-196v44l172 256h83v-251h58v-49zM235 570v198l-136 -198h136z" />
<glyph unicode="&#x2075;" horiz-adv-x="388" d="M344 547q0 -60 -43 -96.5t-109 -36.5q-99 0 -148 65l35 39q42 -55 113 -55q41 0 66.5 23.5t25.5 58.5q0 37 -24.5 60t-65.5 23q-56 0 -95 -39l-43 15v217h261v-49h-201v-134q38 36 96 36q55 0 93.5 -33.5t38.5 -93.5z" />
<glyph unicode="&#x2076;" horiz-adv-x="388" d="M350 546q0 -56 -40.5 -94t-106.5 -38q-84 0 -124.5 57.5t-40.5 148.5q0 90 45 148.5t129 58.5q69 0 117 -46l-29 -42q-36 39 -88 39q-56 0 -85 -43t-29 -103v-17q18 24 49 42.5t66 18.5q59 0 98 -34.5t39 -95.5zM290 544q0 41 -26 62.5t-66 21.5q-28 0 -54.5 -15 t-43.5 -41q3 -45 28 -77t72 -32q41 0 65.5 25t24.5 56z" />
<glyph unicode="&#x2077;" horiz-adv-x="362" d="M323 779l-166 -358h-67l166 351h-223v49h290v-42z" />
<glyph unicode="&#x2078;" horiz-adv-x="388" d="M347 523q0 -52 -44.5 -80.5t-108.5 -28.5q-65 0 -109 28.5t-44 80.5q0 38 29 66t72 38q-41 10 -67.5 34t-26.5 61q0 52 43.5 78.5t102.5 26.5t102.5 -26.5t43.5 -78.5q0 -37 -26.5 -61t-67.5 -34q43 -10 72 -38t29 -66zM280 715q0 30 -24.5 47t-61.5 17q-38 0 -62.5 -17 t-24.5 -47q0 -51 87 -68q86 16 86 68zM287 528q0 35 -32 54t-61 23q-29 -4 -61.5 -23t-32.5 -54q0 -31 27 -49t67 -18q39 0 66 18.5t27 48.5z" />
<glyph unicode="&#x2079;" horiz-adv-x="388" d="M38 695q0 55 41 93.5t107 38.5q83 0 123.5 -58t40.5 -149q0 -89 -45 -147.5t-129 -58.5q-72 0 -116 46l28 42q36 -39 88 -39q55 0 84 42.5t30 104.5v16q-17 -24 -48 -42.5t-66 -18.5q-59 0 -98.5 34t-39.5 96zM98 697q0 -41 26 -62.5t66 -21.5q63 0 98 56q-4 44 -28 76.5 t-71 32.5q-42 0 -66.5 -25t-24.5 -56z" />
<glyph unicode="&#x207d;" horiz-adv-x="161" d="M151 372l-35 -16q-90 111 -90 265q0 153 90 265l35 -16q-63 -124 -63 -249q0 -126 63 -249z" />
<glyph unicode="&#x207e;" horiz-adv-x="161" d="M148 621q0 -152 -91 -265l-34 16q63 123 63 249t-63 249l34 16q43 -53 67 -123t24 -142z" />
<glyph unicode="&#x207f;" horiz-adv-x="398" d="M338 326h-58v200q0 74 -70 74q-56 0 -92 -46v-228h-58v314h58v-45q45 53 115 53q105 0 105 -107v-215z" />
<glyph unicode="&#x2080;" horiz-adv-x="388" d="M355 54q0 -83 -41 -145t-120 -62q-80 0 -120.5 61.5t-40.5 145.5t40.5 145t120.5 61q79 0 120 -61.5t41 -144.5zM293 54q0 68 -24 112.5t-75 44.5q-52 0 -76 -44.5t-24 -112.5t24 -113t76 -45q51 0 75 45t24 113z" />
<glyph unicode="&#x2081;" horiz-adv-x="235" d="M175 -146h-60v322l-66 -69l-35 37l108 110h53v-400z" />
<glyph unicode="&#x2082;" horiz-adv-x="388" d="M341 -146h-291v45q124 88 176.5 140.5t52.5 98.5q0 36 -25 54.5t-60 18.5q-73 0 -112 -52l-33 38q50 63 147 63q60 0 101.5 -30.5t41.5 -87.5q0 -56 -50 -111.5t-151 -127.5h203v-49z" />
<glyph unicode="&#x2083;" horiz-adv-x="388" d="M343 -37q0 -52 -41 -84t-110 -32q-103 0 -150 65l32 38q44 -54 116 -54q43 0 68 19t25 51q0 69 -104 69q-34 0 -40 -1v50q7 -1 39 -1q98 0 98 64q0 30 -25.5 47t-63.5 17q-64 0 -109 -49l-31 36q55 62 145 62q64 0 104 -29t40 -78q0 -40 -27 -63.5t-62 -29.5 q34 -3 65 -28t31 -69z" />
<glyph unicode="&#x2084;" horiz-adv-x="388" d="M352 -46h-58v-100h-59v100h-196v44l172 256h83v-251h58v-49zM235 3v198l-136 -198h136z" />
<glyph unicode="&#x2085;" horiz-adv-x="388" d="M344 -20q0 -60 -43 -96.5t-109 -36.5q-99 0 -148 65l35 39q42 -55 113 -55q41 0 66.5 23.5t25.5 58.5q0 37 -24.5 60t-65.5 23q-56 0 -95 -39l-43 15v217h261v-49h-201v-134q38 36 96 36q55 0 93.5 -33.5t38.5 -93.5z" />
<glyph unicode="&#x2086;" horiz-adv-x="388" d="M350 -21q0 -56 -40.5 -94t-106.5 -38q-84 0 -124.5 57.5t-40.5 148.5q0 90 45 148.5t129 58.5q69 0 117 -46l-29 -42q-36 39 -88 39q-56 0 -85 -43t-29 -103v-17q18 24 49 42.5t66 18.5q59 0 98 -34.5t39 -95.5zM290 -23q0 41 -26 62.5t-66 21.5q-28 0 -54.5 -15 t-43.5 -41q3 -45 28 -77t72 -32q41 0 65.5 25t24.5 56z" />
<glyph unicode="&#x2087;" horiz-adv-x="362" d="M323 212l-166 -358h-67l166 351h-223v49h290v-42z" />
<glyph unicode="&#x2088;" horiz-adv-x="388" d="M347 -44q0 -52 -44.5 -80.5t-108.5 -28.5q-65 0 -109 28.5t-44 80.5q0 38 29 66t72 38q-41 10 -67.5 34t-26.5 61q0 52 43.5 78.5t102.5 26.5t102.5 -26.5t43.5 -78.5q0 -37 -26.5 -61t-67.5 -34q43 -10 72 -38t29 -66zM280 148q0 30 -24.5 47t-61.5 17q-38 0 -62.5 -17 t-24.5 -47q0 -51 87 -68q86 16 86 68zM287 -39q0 35 -32 54t-61 23q-29 -4 -61.5 -23t-32.5 -54q0 -31 27 -49t67 -18q39 0 66 18.5t27 48.5z" />
<glyph unicode="&#x2089;" horiz-adv-x="388" d="M38 128q0 55 41 93.5t107 38.5q83 0 123.5 -58t40.5 -149q0 -89 -45 -147.5t-129 -58.5q-72 0 -116 46l28 42q36 -39 88 -39q55 0 84 42.5t30 104.5v16q-17 -24 -48 -42.5t-66 -18.5q-59 0 -98.5 34t-39.5 96zM98 130q0 -41 26 -62.5t66 -21.5q63 0 98 56q-4 44 -28 76.5 t-71 32.5q-42 0 -66.5 -25t-24.5 -56z" />
<glyph unicode="&#x208d;" horiz-adv-x="161" d="M151 -195l-35 -16q-90 111 -90 265q0 153 90 265l35 -16q-63 -124 -63 -249q0 -126 63 -249z" />
<glyph unicode="&#x208e;" horiz-adv-x="161" d="M148 54q0 -152 -91 -265l-34 16q63 123 63 249t-63 249l34 16q43 -53 67 -123t24 -142z" />
<glyph unicode="&#x20a1;" horiz-adv-x="680" d="M398 -12q-4 0 -11.5 0.5t-10.5 0.5l-30 -89h-50l32 95q-45 8 -79 23l-39 -118h-50l47 141q-71 45 -111.5 121t-40.5 171q0 152 98.5 248.5t244.5 96.5q4 0 11 -0.5t11 -0.5l30 91h50l-32 -97q40 -9 76 -29l42 126h50l-51 -152q34 -26 66 -70l-70 -39q-12 17 -23 28 l-157 -473q55 1 103 27.5t77 69.5l71 -39q-97 -132 -254 -132zM141 333q0 -136 93 -213l161 484q-110 -2 -182 -77.5t-72 -193.5zM275 92q35 -18 76 -26l168 501q-36 23 -75 32z" />
<glyph unicode="&#x20a3;" horiz-adv-x="561" d="M171 0h-83v137h-78v48h78v482h437v-74h-354v-215h347v-74h-347v-119h202v-48h-202v-137z" />
<glyph unicode="&#x20a4;" horiz-adv-x="518" d="M19 328v46h64q-35 49 -35 106q0 82 66 139.5t158 57.5q68 0 121 -29.5t81 -82.5l-67 -40q-14 34 -48.5 58t-78.5 24q-59 0 -101 -35t-42 -93q0 -53 39 -105h192v-46h-155q29 -38 36 -70h119v-46h-116q-5 -69 -75 -119q25 9 52 9q33 0 76.5 -20.5t71.5 -20.5q31 0 57 12.5 t38 27.5l36 -67q-49 -47 -135 -47q-47 0 -95 23t-84 23q-42 0 -118 -40l-30 62q64 29 98.5 68.5t34.5 84.5v4h-160v46h150q-9 22 -49 70h-101z" />
<glyph unicode="&#x20a6;" horiz-adv-x="729" d="M640 0h-80l-177 241h-212v-241h-83v241h-78v48h78v95h-78v48h78v235h85l173 -235h211v235h83v-235h78v-48h-78v-95h78v-48h-78v-241zM171 384v-95h177l-69 95h-108zM381 384l70 -95h106v95h-176zM171 532v-100h73zM487 241l70 -95v95h-70z" />
<glyph unicode="&#x20a7;" horiz-adv-x="640" d="M635 439h-72q-9 -76 -64 -125t-143 -49h-185v-265h-83v439h-78v52h78v176h268q89 0 144 -50t63 -126h72v-52zM171 593v-102h306q-8 46 -43.5 74t-87.5 28h-175zM346 339q51 0 86.5 27.5t43.5 72.5h-305v-100h175z" />
<glyph unicode="&#x20a8;" horiz-adv-x="1019" d="M782 -12q-123 0 -195 76l39 54q25 -29 68.5 -49t90.5 -20q54 0 84 23t30 60q0 32 -31 50.5t-74.5 28t-87.5 22t-75 43t-31 80.5q0 59 48.5 99t131.5 40q109 0 179 -70l-35 -52q-51 61 -144 61q-49 0 -78 -21.5t-29 -54.5q0 -29 31 -45.5t74.5 -26t87.5 -22.5t75 -45.5 t31 -84.5q0 -64 -50 -105t-140 -41zM562 0h-98l-170 265h-133v-265h-83v667h268q93 0 151 -55t58 -146q0 -86 -50 -137t-123 -57zM336 338q59 0 96 36t37 92t-37 91.5t-96 35.5h-175v-255h175z" />
<glyph unicode="&#x20a9;" horiz-adv-x="883" d="M678 0h-90l-66 241h-162l-66 -241h-90l-69 241h-115v48h102l-27 95h-75v48h61l-67 235h92l62 -235h174l65 235h69l64 -235h173l63 235h92l-68 -235h63v-48h-76l-27 -95h103v-48h-117zM181 384l25 -95h97l26 95h-148zM553 384l27 -95h96l25 95h-148zM399 384l-26 -95h136 l-26 95h-84zM593 241l36 -130l34 130h-70zM219 241l35 -130l36 130h-71zM441 538l-29 -106h58z" />
<glyph unicode="&#x20aa;" horiz-adv-x="820" d="M521 0h-248v387h73v-321h175q151 0 151 151v333h73v-338q0 -212 -224 -212zM323 550q225 0 225 -212v-176h-73v170q0 152 -152 152h-175v-484h-73v550h248z" />
<glyph unicode="&#x20ab;" horiz-adv-x="579" d="M483 -143h-363v48h363v-48zM500 0h-75v72q-62 -84 -163 -84q-96 0 -155.5 68.5t-59.5 184.5q0 115 59.5 184.5t155.5 69.5q100 0 163 -85v125h-157v48h157v84h75v-84h68v-48h-68v-535zM280 55q44 0 84 22t61 54v219q-21 33 -61.5 55.5t-83.5 22.5q-71 0 -113 -52.5 t-42 -134.5t42 -134t113 -52z" />
<glyph unicode="&#x20ac;" horiz-adv-x="695" d="M415 -12q-121 0 -211.5 67.5t-119.5 181.5h-53v52h43q-2 28 -2 44t2 46h-43v52h53q30 112 120.5 179.5t210.5 67.5q160 0 253 -132l-70 -39q-29 43 -78 70t-105 27q-85 0 -150 -47t-92 -126h303v-52h-315q-3 -23 -3 -46t3 -44h315v-52h-303q26 -80 91.5 -127.5 t150.5 -47.5q56 0 105 26.5t78 70.5l71 -39q-97 -132 -254 -132z" />
<glyph unicode="&#x2113;" horiz-adv-x="475" d="M150 281v-170q0 -28 12.5 -45t36.5 -17q28 0 51 21l22 -51q-31 -31 -90 -31q-49 0 -78 27.5t-29 85.5v404q0 73 53.5 122.5t137.5 49.5q75 0 125.5 -36t50.5 -90q0 -45 -31.5 -81t-89.5 -75zM150 355l142 96q41 28 59.5 49t18.5 48q0 32 -31.5 52.5t-73.5 20.5 q-49 0 -82 -32t-33 -85v-149z" />
<glyph unicode="&#x2116;" horiz-adv-x="1113" d="M910 350q-73 0 -117.5 47.5t-44.5 117.5t44.5 117.5t117.5 47.5q74 0 118.5 -47.5t44.5 -117.5t-44.5 -117.5t-118.5 -47.5zM910 398q48 0 76 33t28 84q0 50 -28 82.5t-76 32.5q-47 0 -74.5 -32.5t-27.5 -82.5q0 -51 27.5 -84t74.5 -33zM630 0h-80l-389 532v-532h-83v667 h85l384 -521v521h83v-667z" />
<glyph unicode="&#x2117;" horiz-adv-x="778" d="M734 334q0 -142 -101 -243.5t-244 -101.5t-244 101.5t-101 243.5t101 243.5t244 101.5t244 -101.5t101 -243.5zM703 334q0 129 -92.5 221.5t-221.5 92.5q-130 0 -222 -92.5t-92 -221.5q0 -130 92 -222t222 -92q129 0 221.5 92t92.5 222zM549 419q0 -52 -36 -83t-89 -31 h-112v-174h-37v405h149q52 0 88.5 -31.5t36.5 -85.5zM512 419q0 37 -25 59.5t-63 22.5h-112v-162h112q38 0 63 22t25 58z" />
<glyph unicode="&#x2120;" horiz-adv-x="476" d="M439 447h-28v182l-75 -182h-8l-75 182v-182h-28v220h43l64 -160l64 160h43v-220zM188 506q0 -31 -22.5 -49t-64.5 -18q-55 0 -86 36l18 21q28 -32 67 -32q55 0 55 39q0 19 -21.5 30t-46.5 15t-46.5 19.5t-21.5 42.5q0 28 22.5 45.5t57.5 17.5q55 0 82 -32l-18 -19 q-22 27 -63 27q-21 0 -34.5 -10t-13.5 -26q0 -17 21 -27t47 -14.5t47 -20.5t21 -45z" />
<glyph unicode="&#x2122;" horiz-adv-x="454" d="M419 447h-28v182l-75 -182h-8l-75 182v-182h-28v220h43l64 -160l64 160h43v-220zM169 641h-62v-194h-28v194h-62v26h152v-26z" />
<glyph unicode="&#x2126;" horiz-adv-x="765" d="M69 74h135q-153 92 -153 274q0 145 92 237.5t239 92.5q148 0 239.5 -92.5t91.5 -237.5q0 -182 -151 -274h134v-74h-240v74q71 18 121 87t50 173q0 115 -65 192t-180 77t-180 -77t-65 -192q0 -104 50.5 -173t121.5 -87v-74h-240v74z" />
<glyph unicode="&#x212e;" horiz-adv-x="842" d="M811 324h-632q-5 0 -5 -5v-190q0 -14 9 -23q98 -103 240 -103q151 0 250 115h57q-54 -63 -135 -99.5t-174 -36.5q-161 0 -275.5 103t-114.5 248t114.5 248t275.5 103t275.5 -103t114.5 -248v-9zM668 349v191q0 14 -10 24q-97 99 -235 99q-140 0 -239 -102 q-10 -10 -10 -24v-188q0 -6 5 -6h485q4 0 4 6z" />
<glyph unicode="&#x2153;" horiz-adv-x="807" d="M175 267h-60v322l-66 -69l-35 37l108 110h53v-400zM590 667l-427 -667h-55l426 667h56zM761 109q0 -52 -41 -84t-110 -32q-103 0 -150 65l32 38q44 -54 116 -54q43 0 68 19t25 51q0 69 -104 69q-34 0 -40 -1v50q7 -1 39 -1q98 0 98 64q0 30 -25.5 47t-63.5 17 q-64 0 -109 -49l-31 36q55 62 145 62q64 0 104 -29t40 -78q0 -40 -27 -63.5t-62 -29.5q34 -3 65 -28t31 -69z" />
<glyph unicode="&#x2154;" horiz-adv-x="915" d="M341 267h-291v45q124 88 176.5 140.5t52.5 98.5q0 36 -25 54.5t-60 18.5q-73 0 -112 -52l-33 38q50 63 147 63q60 0 101.5 -30.5t41.5 -87.5q0 -56 -50 -111.5t-151 -127.5h203v-49zM698 667l-427 -667h-55l426 667h56zM870 109q0 -52 -41 -84t-110 -32q-103 0 -150 65 l32 38q44 -54 116 -54q43 0 68 19t25 51q0 69 -104 69q-34 0 -40 -1v50q7 -1 39 -1q98 0 98 64q0 30 -25.5 47t-63.5 17q-64 0 -109 -49l-31 36q55 62 145 62q64 0 104 -29t40 -78q0 -40 -27 -63.5t-62 -29.5q34 -3 65 -28t31 -69z" />
<glyph unicode="&#x215b;" horiz-adv-x="807" d="M175 267h-60v322l-66 -69l-35 37l108 110h53v-400zM765 102q0 -52 -44.5 -80.5t-108.5 -28.5q-65 0 -109 28.5t-44 80.5q0 38 29 66t72 38q-41 10 -67.5 34t-26.5 61q0 52 43.5 78.5t102.5 26.5t102.5 -26.5t43.5 -78.5q0 -37 -26.5 -61t-67.5 -34q43 -10 72 -38t29 -66z M698 294q0 30 -24.5 47t-61.5 17q-38 0 -62.5 -17t-24.5 -47q0 -51 87 -68q86 16 86 68zM705 107q0 35 -32 54t-61 23q-29 -4 -61.5 -23t-32.5 -54q0 -31 27 -49t67 -18q39 0 66 18.5t27 48.5zM590 667l-427 -667h-55l426 667h56z" />
<glyph unicode="&#x215c;" horiz-adv-x="915" d="M874 102q0 -52 -44.5 -80.5t-108.5 -28.5q-65 0 -109 28.5t-44 80.5q0 38 29 66t72 38q-41 10 -67.5 34t-26.5 61q0 52 43.5 78.5t102.5 26.5t102.5 -26.5t43.5 -78.5q0 -37 -26.5 -61t-67.5 -34q43 -10 72 -38t29 -66zM807 294q0 30 -24.5 47t-61.5 17q-38 0 -62.5 -17 t-24.5 -47q0 -51 87 -68q86 16 86 68zM814 107q0 35 -32 54t-61 23q-29 -4 -61.5 -23t-32.5 -54q0 -31 27 -49t67 -18q39 0 66 18.5t27 48.5zM698 667l-427 -667h-55l426 667h56zM343 376q0 -52 -41 -84t-110 -32q-103 0 -150 65l32 38q44 -54 116 -54q43 0 68 19t25 51 q0 69 -104 69q-34 0 -40 -1v50q7 -1 39 -1q98 0 98 64q0 30 -25.5 47t-63.5 17q-64 0 -109 -49l-31 36q55 62 145 62q64 0 104 -29t40 -78q0 -40 -27 -63.5t-62 -29.5q34 -3 65 -28t31 -69z" />
<glyph unicode="&#x215d;" horiz-adv-x="912" d="M871 102q0 -52 -44.5 -80.5t-108.5 -28.5q-65 0 -109 28.5t-44 80.5q0 38 29 66t72 38q-41 10 -67.5 34t-26.5 61q0 52 43.5 78.5t102.5 26.5t102.5 -26.5t43.5 -78.5q0 -37 -26.5 -61t-67.5 -34q43 -10 72 -38t29 -66zM804 294q0 30 -24.5 47t-61.5 17q-38 0 -62.5 -17 t-24.5 -47q0 -51 87 -68q86 16 86 68zM811 107q0 35 -32 54t-61 23q-29 -4 -61.5 -23t-32.5 -54q0 -31 27 -49t67 -18q39 0 66 18.5t27 48.5zM344 393q0 -60 -43 -96.5t-109 -36.5q-99 0 -148 65l35 39q42 -55 113 -55q41 0 66.5 23.5t25.5 58.5q0 37 -24.5 60t-65.5 23 q-56 0 -95 -39l-43 15v217h261v-49h-201v-134q38 36 96 36q55 0 93.5 -33.5t38.5 -93.5zM695 667l-427 -667h-55l426 667h56z" />
<glyph unicode="&#x215e;" horiz-adv-x="830" d="M789 102q0 -52 -44.5 -80.5t-108.5 -28.5q-65 0 -109 28.5t-44 80.5q0 38 29 66t72 38q-41 10 -67.5 34t-26.5 61q0 52 43.5 78.5t102.5 26.5t102.5 -26.5t43.5 -78.5q0 -37 -26.5 -61t-67.5 -34q43 -10 72 -38t29 -66zM722 294q0 30 -24.5 47t-61.5 17q-38 0 -62.5 -17 t-24.5 -47q0 -51 87 -68q86 16 86 68zM729 107q0 35 -32 54t-61 23q-29 -4 -61.5 -23t-32.5 -54q0 -31 27 -49t67 -18q39 0 66 18.5t27 48.5zM323 625l-166 -358h-67l166 351h-223v49h290v-42zM613 667l-427 -667h-55l426 667h56z" />
<glyph unicode="&#x2190;" horiz-adv-x="582" d="M538 211h-269l12 -130l-281 205l281 204l-12 -129h269v-150z" />
<glyph unicode="&#x2191;" horiz-adv-x="582" d="M216 17v269l-130 -12l205 281l204 -281l-129 12v-269h-150z" />
<glyph unicode="&#x2192;" horiz-adv-x="582" d="M584 286l-281 -205l12 130h-268v150h268l-12 129z" />
<glyph unicode="&#x2193;" horiz-adv-x="582" d="M366 555v-269l130 12l-205 -281l-204 281l129 -12v269h150z" />
<glyph unicode="&#x2202;" d="M286 -12q-108 0 -173.5 70.5t-65.5 175.5q0 104 62 174.5t158 70.5q99 0 155 -82q-30 67 -95 130t-154 107l56 46q123 -64 209.5 -178t86.5 -253q0 -115 -65 -188t-174 -73zM286 55q74 0 117 51.5t43 127.5q0 74 -43 126t-117 52t-117.5 -52t-43.5 -126q0 -75 43.5 -127 t117.5 -52z" />
<glyph unicode="&#x2206;" horiz-adv-x="658" d="M649 0h-640l268 667h103zM530 74l-201 507l-201 -507h402z" />
<glyph unicode="&#x220f;" horiz-adv-x="707" d="M566 -90h-83v683h-259v-683h-83v683h-109v74h643v-74h-109v-683z" />
<glyph unicode="&#x2211;" horiz-adv-x="575" d="M157 593l229 -295l-232 -314h367v-74h-467v74l231 313l-230 296v74h466v-74h-364z" />
<glyph unicode="&#x2212;" horiz-adv-x="499" d="M470 311h-441v52h441v-52z" />
<glyph unicode="&#x2215;" horiz-adv-x="138" d="M310 667l-427 -667h-55l426 667h56z" />
<glyph unicode="&#x2219;" horiz-adv-x="230" d="M170 244q0 -22 -16.5 -38t-38.5 -16t-38.5 16t-16.5 38t16 38.5t39 16.5t39 -16.5t16 -38.5z" />
<glyph unicode="&#x221a;" horiz-adv-x="725" d="M427 0h-58l-130 327l-155 -61l-18 50l206 79l127 -317l235 589h59z" />
<glyph unicode="&#x221e;" horiz-adv-x="656" d="M183 170q-75 0 -114.5 49.5t-39.5 115.5q0 67 39 116t115 49q48 0 85.5 -31t58.5 -78q23 48 60.5 78.5t85.5 30.5q75 0 114.5 -49t39.5 -116q0 -66 -39.5 -115.5t-114.5 -49.5q-48 0 -85.5 30.5t-60.5 78.5q-21 -47 -58.5 -78t-85.5 -31zM468 223q48 0 75.5 31t27.5 81 t-27.5 81.5t-75.5 31.5q-39 0 -68.5 -33t-46.5 -80q17 -47 46.5 -79.5t68.5 -32.5zM189 222q72 0 115 113q-43 113 -115 113q-48 0 -76 -31.5t-28 -81.5q0 -49 28 -81t76 -32z" />
<glyph unicode="&#x222b;" horiz-adv-x="348" d="M78 -100h-61v55h61q27 0 46.5 23t19.5 57v598q0 60 37.5 97.5t87.5 37.5h62v-55h-62q-27 0 -46.5 -22.5t-19.5 -57.5v-599q0 -59 -37.5 -96.5t-87.5 -37.5z" />
<glyph unicode="&#x2248;" horiz-adv-x="499" d="M29 211v59q47 -33 110 -33q46 0 104.5 29t115.5 29q60 0 111 -27v-59q-49 34 -111 34q-47 0 -105 -29.5t-115 -29.5q-63 0 -110 27zM29 400v58q49 -33 110 -33q46 0 104.5 29.5t115.5 29.5q60 0 111 -27v-59q-47 33 -111 33q-47 0 -105 -29t-115 -29q-61 0 -110 27z" />
<glyph unicode="&#x2260;" horiz-adv-x="499" d="M123 93h-54l75 118h-115v52h148l90 141h-238v53h272l74 117h55l-75 -117h115v-53h-148l-90 -141h238v-52h-272z" />
<glyph unicode="&#x2264;" horiz-adv-x="499" d="M470 99l-441 218v53l441 219v-63l-377 -183l377 -182v-62zM470 0h-441v52h441v-52z" />
<glyph unicode="&#x2265;" horiz-adv-x="499" d="M469 317l-441 -218v62l377 182l-377 183v63l441 -219v-53zM469 0h-441v52h441v-52z" />
<glyph unicode="&#x22b2;" horiz-adv-x="587" d="M589 286l-535 -309v618z" />
<glyph unicode="&#x22b3;" horiz-adv-x="587" d="M535 595v-618l-535 309z" />
<glyph unicode="&#x22c5;" horiz-adv-x="230" d="M170 244q0 -22 -16.5 -38t-38.5 -16t-38.5 16t-16.5 38t16 38.5t39 16.5t39 -16.5t16 -38.5z" />
<glyph unicode="&#x2318;" horiz-adv-x="667" d="M226 154v74h-74q-31 0 -51.5 -21.5t-20.5 -52.5t21 -53t52 -22t52 22t21 53zM226 439v75q0 31 -20.5 52.5t-51.5 21.5t-52.5 -21.5t-21.5 -52.5t21.5 -53t52.5 -22h72zM265 265h137v137h-137v-137zM586 154q0 31 -20.5 52.5t-51.5 21.5h-73v-74q0 -31 21 -53t52 -22 q30 0 51 22t21 53zM586 514q0 31 -20.5 52.5t-51.5 21.5t-52 -21.5t-21 -52.5v-75h73q30 0 51 22t21 53zM625 154q0 -46 -32.5 -79t-78.5 -33t-79 33t-33 79v74h-137v-74q0 -46 -33 -79t-79 -33t-78.5 33t-32.5 79t32.5 78.5t78.5 32.5h73v137h-72q-46 0 -79 33t-33 79 t33 78.5t79 32.5t78.5 -32.5t32.5 -78.5v-75h137v75q0 46 33 78.5t79 32.5t78.5 -32.5t32.5 -78.5t-32.5 -79t-78.5 -33h-73v-137h73q46 0 78.5 -32.5t32.5 -78.5z" />
<glyph unicode="&#x25a0;" horiz-adv-x="661" d="M618 0h-571v572h571v-572z" />
<glyph unicode="&#x25b2;" horiz-adv-x="616" d="M617 29l-619 1l309 535z" />
<glyph unicode="&#x25bc;" horiz-adv-x="616" d="M617 510l-310 -535l-309 535h619z" />
<glyph unicode="&#x25ca;" horiz-adv-x="375" d="M198 0h-21l-158 334l158 333h21l158 -333zM188 41l132 293l-133 292l-132 -292z" />
<glyph unicode="&#x25cf;" horiz-adv-x="695" d="M644 285q0 -123 -87 -210t-210 -87t-210 87t-87 210t87 210t210 87t210 -87t87 -210z" />
<glyph unicode="&#x2605;" horiz-adv-x="759" d="M759 421l-235 -171l90 -275l-235 170l-234 -170l89 275l-234 171h290l89 276l90 -276h290z" />
<glyph unicode="&#x2610;" horiz-adv-x="661" d="M616 0h-571v572h571v-572zM559 52v467h-458v-467h458z" />
<glyph unicode="&#x2611;" horiz-adv-x="661" d="M677 698l-69 -126h8v-572h-571v572h502l84 155zM559 52v428l-211 -389l-202 246l42 39l152 -188l178 331h-417v-467h458z" />
<glyph unicode="&#x2666;" horiz-adv-x="501" d="M501 285l-251 -250l-250 250l250 251z" />
<glyph unicode="&#x2713;" horiz-adv-x="531" d="M531 698l-329 -607l-202 246l42 39l152 -188l291 539z" />
<glyph unicode="&#xe000;" horiz-adv-x="485" d="M0 485h485v-485h-485v485z" />
<glyph unicode="&#xf628;" horiz-adv-x="878" d="M288 425q0 -58 -37 -97t-95 -39q-57 0 -93.5 39t-36.5 97t36.5 97.5t93.5 39.5q58 0 95 -39.5t37 -97.5zM566 125q0 -58 -37 -97t-94 -39t-94 39t-37 97q0 59 37 98t94 39t94 -39t37 -98zM514 550l-384 -550h-52l382 550h54zM236 425q0 40 -22.5 66.5t-57.5 26.5 q-34 0 -56.5 -27t-22.5 -66t22.5 -65.5t56.5 -26.5q36 0 58 26t22 66zM514 125q0 40 -22 66.5t-57 26.5q-36 0 -58 -26.5t-22 -66.5q0 -39 22.5 -65.5t57.5 -26.5t57 26.5t22 65.5zM852 125q0 -58 -37 -97t-94 -39t-93.5 40t-36.5 96q0 59 36.5 98t93.5 39t94 -39t37 -98z M801 125q0 40 -22 66.5t-58 26.5q-35 0 -57 -26.5t-22 -66.5q0 -39 22 -65.5t57 -26.5t57.5 26.5t22.5 65.5z" />
<glyph unicode="&#xf637;" horiz-adv-x="398" d="M338 326h-58v202q0 72 -71 72q-54 0 -92 -46v-228h-57v434h57v-165q47 53 116 53q105 0 105 -107v-215z" />
<glyph unicode="&#xf638;" horiz-adv-x="598" d="M299 -12q-88 0 -149 55l-27 -43h-65l54 86q-68 95 -68 247q0 64 14.5 123t44 109.5t80 81t116.5 30.5q85 0 147 -54l28 44h65l-54 -87q69 -96 69 -247q0 -64 -14.5 -123t-44 -110t-80.5 -81.5t-116 -30.5zM299 62q60 0 100 41.5t55 99.5t15 130q0 102 -31 171l-246 -394 q42 -48 107 -48zM129 333q0 -101 30 -171l246 394q-42 47 -106 47q-60 0 -100 -41t-55 -99t-15 -130z" />
<glyph unicode="&#xf639;" horiz-adv-x="598" d="M299 -12q-66 0 -116.5 30.5t-80 81.5t-44 110t-14.5 123t14.5 123t44 109.5t80 81t116.5 30.5q65 0 116 -30.5t80.5 -81t44 -109.5t14.5 -123t-14.5 -123t-44 -110t-80.5 -81.5t-116 -30.5zM299 62q60 0 100 41.5t55 99.5t15 130t-15 130t-55 99t-100 41t-100 -41 t-55 -99t-15 -130t15 -130t55 -99.5t100 -41.5z" />
<glyph unicode="&#xf63a;" horiz-adv-x="598" d="M527 0h-458v66q104 82 161.5 130.5t111 103t75.5 97t22 84.5q0 60 -41 91t-98 31q-115 0 -181 -84l-51 53q38 50 99.5 77.5t132.5 27.5q91 0 157.5 -51t66.5 -145q0 -93 -80 -185.5t-244 -221.5h327v-74z" />
<glyph unicode="&#xf63b;" horiz-adv-x="598" d="M298 -12q-80 0 -142 31t-95 79l49 52q30 -40 79 -64t107 -24q73 0 114.5 33.5t41.5 91.5q0 60 -44.5 89t-121.5 29q-59 0 -69 -1v76q11 -1 69 -1q68 0 111.5 27.5t43.5 82.5q0 53 -42.5 83.5t-106.5 30.5q-101 0 -176 -81l-46 52q85 103 228 103q99 0 162.5 -47.5 t63.5 -130.5q0 -66 -44 -105.5t-100 -49.5q55 -5 104.5 -48t49.5 -116q0 -85 -64 -138.5t-172 -53.5z" />
<glyph unicode="&#xf63c;" horiz-adv-x="598" d="M451 0h-83v169h-317v69l286 429h114v-425h94v-73h-94v-169zM368 242v348l-234 -348h234z" />
<glyph unicode="&#xf63d;" horiz-adv-x="598" d="M304 -12q-154 0 -235 107l51 55q69 -88 184 -88q68 0 111 41t43 102q0 65 -42.5 104.5t-110.5 39.5q-90 0 -154 -63l-61 21v360h408v-74h-325v-232q60 60 156 60q88 0 150 -57.5t62 -155.5q0 -100 -67 -160t-170 -60z" />
<glyph unicode="&#xf63e;" horiz-adv-x="598" d="M315 -12q-67 0 -118 28t-80.5 76.5t-44 109t-14.5 130.5q0 94 28 170t90.5 125.5t152.5 49.5q115 0 185 -80l-42 -62q-58 68 -143 68q-62 0 -105.5 -39t-63 -96.5t-19.5 -126.5q0 -17 1 -26q25 40 77.5 72t111.5 32q95 0 156.5 -55.5t61.5 -157.5q0 -91 -64 -154.5 t-170 -63.5zM312 62q72 0 112.5 43.5t40.5 97.5q0 70 -43 107t-111 37q-49 0 -94 -27.5t-73 -72.5q7 -74 48 -129.5t120 -55.5z" />
<glyph unicode="&#xf63f;" horiz-adv-x="598" d="M254 0h-92l269 593h-359v74h455v-57z" />
<glyph unicode="&#xf640;" horiz-adv-x="598" d="M299 -12q-102 0 -170.5 49t-68.5 132q0 63 45.5 109t113.5 66q-64 18 -106 58.5t-42 101.5q0 84 68 128.5t160 44.5t160.5 -44.5t68.5 -128.5q0 -61 -42 -101.5t-107 -58.5q68 -20 113.5 -66t45.5 -109q0 -82 -68.5 -131.5t-170.5 -49.5zM299 378q20 3 40.5 10t46.5 19.5 t42 35t16 50.5q0 50 -41.5 80t-103.5 30q-63 0 -104 -30t-41 -80q0 -28 16 -50.5t42 -35t46.5 -19t40.5 -10.5zM299 62q64 0 109.5 32t45.5 84q0 40 -31.5 70.5t-64 43t-59.5 15.5q-27 -3 -59.5 -15.5t-64.5 -43t-32 -70.5q0 -52 45.5 -84t110.5 -32z" />
<glyph unicode="&#xf641;" horiz-adv-x="598" d="M269 -11q-115 0 -185 80l42 62q58 -68 143 -68q64 0 108 40t62 97t18 124q0 18 -1 27q-25 -40 -77 -72t-111 -32q-95 0 -157 55.5t-62 157.5q0 90 64 154t169 64q68 0 119 -28t80.5 -77t44 -109t14.5 -131q0 -94 -28 -169.5t-90.5 -125t-152.5 -49.5zM287 319 q49 0 94.5 27t71.5 72q-6 74 -47 130t-120 56q-71 0 -112 -44t-41 -97q0 -70 43 -107t111 -37z" />
<glyph unicode="&#xf642;" horiz-adv-x="592" d="M288 425q0 -58 -37 -97t-95 -39q-57 0 -93.5 39t-36.5 97t36.5 97.5t93.5 39.5q58 0 95 -39.5t37 -97.5zM566 125q0 -58 -37 -97t-94 -39t-94 39t-37 97q0 59 37 98t94 39t94 -39t37 -98zM514 550l-384 -550h-52l382 550h54zM236 425q0 40 -22.5 66.5t-57.5 26.5 q-34 0 -56.5 -27t-22.5 -66t22.5 -65.5t56.5 -26.5q36 0 58 26t22 66zM514 125q0 40 -22 66.5t-57 26.5q-36 0 -58 -26.5t-22 -66.5t22 -66t58 -26q35 0 57 26.5t22 65.5z" />
<glyph unicode="&#xf643;" horiz-adv-x="598" d="M554 275q0 -75 -25.5 -138t-85 -106t-144.5 -43t-144.5 43t-85 106t-25.5 138q0 56 15 106t45 91t80.5 65.5t114.5 24.5t114.5 -24.5t80.5 -65.5t45 -91t15 -106zM469 275q0 89 -43 151t-127 62t-127 -62t-43 -151t43 -151t127 -62t127 62t43 151z" />
<glyph unicode="&#xf644;" horiz-adv-x="598" d="M395 0h-83v440l-107 -113l-50 51l167 172h73v-550z" />
<glyph unicode="&#xf645;" horiz-adv-x="598" d="M509 0h-431v67q180 74 269 152t89 152q0 51 -39.5 84t-96.5 33q-58 0 -106.5 -22.5t-79.5 -61.5l-51 53q38 49 102.5 77t136.5 28q95 0 156.5 -49.5t61.5 -130.5q0 -88 -81 -170.5t-208 -137.5h278v-74z" />
<glyph unicode="&#xf646;" horiz-adv-x="598" d="M298 -131q-80 0 -142 31t-95 79l49 52q30 -40 79 -64t107 -24q73 0 114.5 33.5t41.5 91.5q0 60 -44.5 89t-121.5 29q-59 0 -69 -1v76q11 -1 69 -1q68 0 111.5 27.5t43.5 82.5q0 53 -42.5 83.5t-106.5 30.5q-101 0 -176 -81l-46 52q85 103 228 103q99 0 162.5 -47.5 t63.5 -130.5q0 -66 -44 -105.5t-100 -49.5q55 -5 104.5 -48t49.5 -116q0 -85 -64 -138.5t-172 -53.5z" />
<glyph unicode="&#xf647;" horiz-adv-x="598" d="M545 55h-94v-172h-83v172h-317v69l286 426h114v-422h94v-73zM368 128v345l-234 -345h234z" />
<glyph unicode="&#xf648;" horiz-adv-x="598" d="M304 -129q-154 0 -235 107l51 55q69 -88 184 -88q68 0 111 41t43 102q0 65 -42.5 104.5t-110.5 39.5q-90 0 -154 -63l-61 21v360h408v-74h-325v-232q60 60 156 60q88 0 150 -57.5t62 -155.5q0 -100 -67 -160t-170 -60z" />
<glyph unicode="&#xf649;" horiz-adv-x="598" d="M315 -12q-67 0 -118 28t-80.5 76.5t-44 109t-14.5 130.5q0 94 28 170t90.5 125.5t152.5 49.5q115 0 185 -80l-42 -62q-58 68 -143 68q-62 0 -105.5 -39t-63 -96.5t-19.5 -126.5q0 -17 1 -26q25 40 77.5 72t111.5 32q95 0 156.5 -55.5t61.5 -157.5q0 -91 -64 -154.5 t-170 -63.5zM312 62q72 0 112.5 43.5t40.5 97.5q0 70 -43 107t-111 37q-49 0 -94 -27.5t-73 -72.5q7 -74 48 -129.5t120 -55.5z" />
<glyph unicode="&#xf64a;" horiz-adv-x="598" d="M254 -117h-92l269 593h-359v74h455v-57z" />
<glyph unicode="&#xf64b;" horiz-adv-x="598" d="M299 -12q-102 0 -170.5 49t-68.5 132q0 63 45.5 109t113.5 66q-64 18 -106 58.5t-42 101.5q0 84 68 128.5t160 44.5t160.5 -44.5t68.5 -128.5q0 -61 -42 -101.5t-107 -58.5q68 -20 113.5 -66t45.5 -109q0 -82 -68.5 -131.5t-170.5 -49.5zM299 378q20 3 40.5 10t46.5 19.5 t42 35t16 50.5q0 50 -41.5 80t-103.5 30q-63 0 -104 -30t-41 -80q0 -28 16 -50.5t42 -35t46.5 -19t40.5 -10.5zM299 62q64 0 109.5 32t45.5 84q0 40 -31.5 70.5t-64 43t-59.5 15.5q-27 -3 -59.5 -15.5t-64.5 -43t-32 -70.5q0 -52 45.5 -84t110.5 -32z" />
<glyph unicode="&#xf64c;" horiz-adv-x="598" d="M269 -127q-115 0 -185 80l42 62q58 -68 143 -68q64 0 108 40t62 97t18 124q0 18 -1 27q-25 -40 -77 -72t-111 -32q-95 0 -157 55.5t-62 157.5q0 90 64 154t169 64q68 0 119 -28t80.5 -77t44 -109t14.5 -131q0 -94 -28 -169.5t-90.5 -125t-152.5 -49.5zM287 203 q49 0 94.5 27t71.5 72q-6 74 -47 130t-120 56q-71 0 -112 -44t-41 -97q0 -70 43 -107t111 -37z" />
<glyph unicode="&#xf64d;" horiz-adv-x="582" d="M138 -53l31 91q-57 38 -89.5 99.5t-32.5 137.5q0 126 83.5 206.5t209.5 80.5h5l13 37h43l-14 -41q29 -4 58 -17l20 58h43l-26 -77q45 -28 77 -73l-63 -35q-15 22 -38 39l-133 -396h15q48 0 90 21.5t66 57.5l64 -35q-83 -113 -220 -113q-12 0 -38 2l-14 -43h-43l16 50 q-27 7 -57 20l-23 -70h-43zM127 275q0 -98 67 -162l128 379q-85 -6 -140 -66.5t-55 -150.5zM228 87q32 -18 57 -24l138 412q-30 13 -59 16z" />
<glyph unicode="&#xf64e;" horiz-adv-x="610" d="M410 313h-253q-2 -13 -2 -38q0 -21 3 -39h252v-44h-240q23 -62 76 -98.5t122 -36.5q48 0 90 21.5t66 57.5l64 -35q-83 -113 -220 -113q-103 0 -180 55.5t-102 148.5h-55v44h46q-2 12 -2 39q0 25 2 38h-46v44h54q26 93 103 149t180 56q139 0 219 -113l-63 -35 q-25 36 -66.5 57.5t-89.5 21.5q-69 0 -122.5 -36.5t-76.5 -99.5h241v-44z" />
<glyph unicode="&#xf64f;" horiz-adv-x="367" d="M106 -119h-84l75 334h-51v57h62l31 135q34 154 152 154q53 0 86 -32l-33 -60q-14 18 -42 18q-59 0 -80 -90l-28 -125h106v-57h-119z" />
<glyph unicode="&#xf650;" horiz-adv-x="496" d="M475 394l-14 -47h-88l-47 -141h89l-15 -47h-90l-54 -159h-57l54 159h-90l-53 -159h-57l53 159h-84l14 47h87l47 141h-87l14 47h88l53 156h57l-54 -156h90l54 156h57l-54 -156h87zM315 347h-88l-48 -141h90z" />
<glyph unicode="&#xf651;" horiz-adv-x="425" d="M14 224v48h71q-48 67 -48 125q0 70 53.5 117t130.5 47q55 0 100 -24t67 -66l-59 -32q-30 64 -102 64q-47 0 -80 -29.5t-33 -77.5q0 -8 1 -15.5t3 -15.5t4 -13.5t6.5 -14.5t6 -13t7.5 -14t8 -12.5t9 -13.5t8 -12h135v-48h-106q12 -27 12 -51q0 -61 -54 -96q9 4 22 4 q29 0 68.5 -14.5t60.5 -14.5q23 0 45 9t32 22l34 -55q-39 -39 -115 -39q-37 0 -75 16.5t-70 16.5q-33 0 -95 -30l-26 54q106 45 106 113q0 28 -23 65h-104z" />
<glyph unicode="&#xf652;" horiz-adv-x="547" d="M314 0h-78v113h-213v48h213v71h-213v47h180l-196 271h91l177 -250l174 250h91l-193 -271h175v-47h-208v-71h208v-48h-208v-113z" />
<glyph unicode="&#xf654;" horiz-adv-x="582" d="M309 -92v82q-115 10 -188.5 88.5t-73.5 196.5t73.5 196.5t188.5 88.5v59h58v-59q120 -10 192 -111l-63 -35q-46 65 -129 77v-432q86 11 129 77l64 -35q-75 -101 -193 -111v-82h-58zM127 275q0 -85 51.5 -145t130.5 -71v432q-80 -11 -131 -70.5t-51 -145.5z" />
<glyph unicode="&#xf655;" horiz-adv-x="388" d="M355 200q0 -83 -41 -145t-120 -62q-80 0 -120.5 61.5t-40.5 145.5t40.5 145t120.5 61q79 0 120 -61.5t41 -144.5zM293 200q0 68 -24 112.5t-75 44.5q-52 0 -76 -44.5t-24 -112.5t24 -113t76 -45q51 0 75 45t24 113z" />
<glyph unicode="&#xf656;" horiz-adv-x="235" d="M175 0h-60v322l-66 -69l-35 37l108 110h53v-400z" />
<glyph unicode="&#xf657;" horiz-adv-x="388" d="M341 0h-291v45q124 88 176.5 140.5t52.5 98.5q0 36 -25 54.5t-60 18.5q-73 0 -112 -52l-33 38q50 63 147 63q60 0 101.5 -30.5t41.5 -87.5q0 -56 -50 -111.5t-151 -127.5h203v-49z" />
<glyph unicode="&#xf658;" horiz-adv-x="388" d="M343 109q0 -52 -41 -84t-110 -32q-103 0 -150 65l32 38q44 -54 116 -54q43 0 68 19t25 51q0 69 -104 69q-34 0 -40 -1v50q7 -1 39 -1q98 0 98 64q0 30 -25.5 47t-63.5 17q-64 0 -109 -49l-31 36q55 62 145 62q64 0 104 -29t40 -78q0 -40 -27 -63.5t-62 -29.5 q34 -3 65 -28t31 -69z" />
<glyph unicode="&#xf659;" horiz-adv-x="388" d="M352 100h-58v-100h-59v100h-196v44l172 256h83v-251h58v-49zM235 149v198l-136 -198h136z" />
<glyph unicode="&#xf65a;" horiz-adv-x="388" d="M344 126q0 -60 -43 -96.5t-109 -36.5q-99 0 -148 65l35 39q42 -55 113 -55q41 0 66.5 23.5t25.5 58.5q0 37 -24.5 60t-65.5 23q-56 0 -95 -39l-43 15v217h261v-49h-201v-134q38 36 96 36q55 0 93.5 -33.5t38.5 -93.5z" />
<glyph unicode="&#xf65b;" horiz-adv-x="388" d="M350 125q0 -56 -40.5 -94t-106.5 -38q-84 0 -124.5 57.5t-40.5 148.5q0 90 45 148.5t129 58.5q69 0 117 -46l-29 -42q-36 39 -88 39q-56 0 -85 -43t-29 -103v-17q18 24 49 42.5t66 18.5q59 0 98 -34.5t39 -95.5zM290 123q0 41 -26 62.5t-66 21.5q-28 0 -54.5 -15 t-43.5 -41q3 -45 28 -77t72 -32q41 0 65.5 25t24.5 56z" />
<glyph unicode="&#xf65c;" horiz-adv-x="362" d="M323 358l-166 -358h-67l166 351h-223v49h290v-42z" />
<glyph unicode="&#xf65d;" horiz-adv-x="388" d="M347 102q0 -52 -44.5 -80.5t-108.5 -28.5q-65 0 -109 28.5t-44 80.5q0 38 29 66t72 38q-41 10 -67.5 34t-26.5 61q0 52 43.5 78.5t102.5 26.5t102.5 -26.5t43.5 -78.5q0 -37 -26.5 -61t-67.5 -34q43 -10 72 -38t29 -66zM280 294q0 30 -24.5 47t-61.5 17q-38 0 -62.5 -17 t-24.5 -47q0 -51 87 -68q86 16 86 68zM287 107q0 35 -32 54t-61 23q-29 -4 -61.5 -23t-32.5 -54q0 -31 27 -49t67 -18q39 0 66 18.5t27 48.5z" />
<glyph unicode="&#xf65e;" horiz-adv-x="388" d="M38 274q0 55 41 93.5t107 38.5q83 0 123.5 -58t40.5 -149q0 -89 -45 -147.5t-129 -58.5q-72 0 -116 46l28 42q36 -39 88 -39q55 0 84 42.5t30 104.5v16q-17 -24 -48 -42.5t-66 -18.5q-59 0 -98.5 34t-39.5 96zM98 276q0 -41 26 -62.5t66 -21.5q63 0 98 56q-4 44 -28 76.5 t-71 32.5q-42 0 -66.5 -25t-24.5 -56z" />
<glyph unicode="&#xf661;" horiz-adv-x="388" d="M355 467q0 -83 -41 -145t-120 -62q-80 0 -120.5 61.5t-40.5 145.5t40.5 145t120.5 61q79 0 120 -61.5t41 -144.5zM293 467q0 68 -24 112.5t-75 44.5q-52 0 -76 -44.5t-24 -112.5t24 -113t76 -45q51 0 75 45t24 113z" />
<glyph unicode="&#xf662;" horiz-adv-x="235" d="M175 267h-60v322l-66 -69l-35 37l108 110h53v-400z" />
<glyph unicode="&#xf663;" horiz-adv-x="388" d="M341 267h-291v45q124 88 176.5 140.5t52.5 98.5q0 36 -25 54.5t-60 18.5q-73 0 -112 -52l-33 38q50 63 147 63q60 0 101.5 -30.5t41.5 -87.5q0 -56 -50 -111.5t-151 -127.5h203v-49z" />
<glyph unicode="&#xf664;" horiz-adv-x="388" d="M343 376q0 -52 -41 -84t-110 -32q-103 0 -150 65l32 38q44 -54 116 -54q43 0 68 19t25 51q0 69 -104 69q-34 0 -40 -1v50q7 -1 39 -1q98 0 98 64q0 30 -25.5 47t-63.5 17q-64 0 -109 -49l-31 36q55 62 145 62q64 0 104 -29t40 -78q0 -40 -27 -63.5t-62 -29.5 q34 -3 65 -28t31 -69z" />
<glyph unicode="&#xf665;" horiz-adv-x="388" d="M352 367h-58v-100h-59v100h-196v44l172 256h83v-251h58v-49zM235 416v198l-136 -198h136z" />
<glyph unicode="&#xf666;" horiz-adv-x="388" d="M344 393q0 -60 -43 -96.5t-109 -36.5q-99 0 -148 65l35 39q42 -55 113 -55q41 0 66.5 23.5t25.5 58.5q0 37 -24.5 60t-65.5 23q-56 0 -95 -39l-43 15v217h261v-49h-201v-134q38 36 96 36q55 0 93.5 -33.5t38.5 -93.5z" />
<glyph unicode="&#xf667;" horiz-adv-x="388" d="M350 392q0 -56 -40.5 -94t-106.5 -38q-84 0 -124.5 57.5t-40.5 148.5q0 90 45 148.5t129 58.5q69 0 117 -46l-29 -42q-36 39 -88 39q-56 0 -85 -43t-29 -103v-17q18 24 49 42.5t66 18.5q59 0 98 -34.5t39 -95.5zM290 390q0 41 -26 62.5t-66 21.5q-28 0 -54.5 -15 t-43.5 -41q3 -45 28 -77t72 -32q41 0 65.5 25t24.5 56z" />
<glyph unicode="&#xf668;" horiz-adv-x="362" d="M323 625l-166 -358h-67l166 351h-223v49h290v-42z" />
<glyph unicode="&#xf669;" horiz-adv-x="388" d="M347 369q0 -52 -44.5 -80.5t-108.5 -28.5q-65 0 -109 28.5t-44 80.5q0 38 29 66t72 38q-41 10 -67.5 34t-26.5 61q0 52 43.5 78.5t102.5 26.5t102.5 -26.5t43.5 -78.5q0 -37 -26.5 -61t-67.5 -34q43 -10 72 -38t29 -66zM280 561q0 30 -24.5 47t-61.5 17q-38 0 -62.5 -17 t-24.5 -47q0 -51 87 -68q86 16 86 68zM287 374q0 35 -32 54t-61 23q-29 -4 -61.5 -23t-32.5 -54q0 -31 27 -49t67 -18q39 0 66 18.5t27 48.5z" />
<glyph unicode="&#xf66a;" horiz-adv-x="388" d="M38 541q0 55 41 93.5t107 38.5q83 0 123.5 -58t40.5 -149q0 -89 -45 -147.5t-129 -58.5q-72 0 -116 46l28 42q36 -39 88 -39q55 0 84 42.5t30 104.5v16q-17 -24 -48 -42.5t-66 -18.5q-59 0 -98.5 34t-39.5 96zM98 543q0 -41 26 -62.5t66 -21.5q63 0 98 56q-4 44 -28 76.5 t-71 32.5q-42 0 -66.5 -25t-24.5 -56z" />
<glyph unicode="&#xf66d;" d="M239 550h94l232 -550h-87l-51 120h-282l-50 -120h-88zM403 189l-117 279l-117 -279h234zM462 676q-65 -88 -175 -88q-109 0 -176 88l37 32q52 -72 139 -72q88 0 138 72z" />
<glyph unicode="&#xf66e;" d="M468 622h-363v48h363v-48zM239 550h94l232 -550h-87l-51 120h-282l-50 -120h-88zM403 189l-117 279l-117 -279h234z" />
<glyph unicode="&#xf66f;" d="M239 550h94l232 -550q-76 -38 -76 -97q0 -50 44 -50q38 0 52 42l37 -21q-26 -60 -89 -60q-38 0 -63.5 22t-25.5 65q0 57 53 99h-19l-51 120h-282l-50 -120h-88zM403 189l-117 279l-117 -279h234z" />
<glyph unicode="&#xf670;" horiz-adv-x="821" d="M595 750l-169 -144h-57l148 144h78zM770 0h-383v120h-216l-76 -120h-89l351 550h413v-69h-305v-165h298v-69h-298v-178h305v-69zM387 189v279l-178 -279h178z" />
<glyph unicode="&#xf671;" horiz-adv-x="582" d="M510 750l-169 -144h-57l148 144h78zM340 -12q-126 0 -209.5 80.5t-83.5 206.5t83.5 206.5t209.5 80.5q139 0 219 -113l-63 -35q-25 36 -66.5 57.5t-89.5 21.5q-91 0 -152 -61.5t-61 -156.5q0 -94 61 -156t152 -62q48 0 90 21.5t66 57.5l64 -35q-83 -113 -220 -113z" />
<glyph unicode="&#xf672;" horiz-adv-x="582" d="M380 606h-72l-98 144h51l83 -106l80 106h51zM340 -12q-126 0 -209.5 80.5t-83.5 206.5t83.5 206.5t209.5 80.5q139 0 219 -113l-63 -35q-25 36 -66.5 57.5t-89.5 21.5q-91 0 -152 -61.5t-61 -156.5q0 -94 61 -156t152 -62q48 0 90 21.5t66 57.5l64 -35 q-83 -113 -220 -113z" />
<glyph unicode="&#xf673;" horiz-adv-x="582" d="M475 606h-51l-83 106l-80 -106h-51l95 144h72zM340 -12q-126 0 -209.5 80.5t-83.5 206.5t83.5 206.5t209.5 80.5q139 0 219 -113l-63 -35q-25 36 -66.5 57.5t-89.5 21.5q-91 0 -152 -61.5t-61 -156.5q0 -94 61 -156t152 -62q48 0 90 21.5t66 57.5l64 -35 q-83 -113 -220 -113z" />
<glyph unicode="&#xf674;" horiz-adv-x="582" d="M340 -12q-126 0 -209.5 80.5t-83.5 206.5t83.5 206.5t209.5 80.5q139 0 219 -113l-63 -35q-25 36 -66.5 57.5t-89.5 21.5q-91 0 -152 -61.5t-61 -156.5q0 -94 61 -156t152 -62q48 0 90 21.5t66 57.5l64 -35q-83 -113 -220 -113zM343 605q-19 0 -33 14t-14 33t14 33t33 14 t32.5 -13.5t13.5 -33.5t-13.5 -33.5t-32.5 -13.5z" />
<glyph unicode="&#xf675;" horiz-adv-x="615" d="M334 606h-72l-98 144h51l83 -106l80 106h51zM262 0h-200v550h199q133 0 213.5 -78t80.5 -198q0 -119 -80 -196.5t-213 -77.5zM261 69q100 0 156.5 58t56.5 147q0 90 -56 148.5t-156 58.5h-122v-412h121z" />
<glyph unicode="&#xf676;" horiz-adv-x="626" d="M273 0h-200v251h-63v53h63v246h199q133 0 213.5 -78t80.5 -198q0 -119 -80 -196.5t-213 -77.5zM285 251h-134v-182h121q100 0 156.5 58t56.5 147q0 90 -56 148.5t-156 58.5h-122v-177h134v-53z" />
<glyph unicode="&#xf677;" horiz-adv-x="509" d="M457 0h-382v550h382v-69h-304v-165h299v-69h-299v-178h304v-69zM441 676q-65 -88 -175 -88q-109 0 -176 88l37 32q52 -72 139 -72q88 0 138 72z" />
<glyph unicode="&#xf678;" horiz-adv-x="509" d="M304 606h-72l-98 144h51l83 -106l80 106h51zM457 0h-382v550h382v-69h-304v-165h299v-69h-299v-178h304v-69z" />
<glyph unicode="&#xf679;" horiz-adv-x="509" d="M457 0h-382v550h382v-69h-304v-165h299v-69h-299v-178h304v-69zM269 605q-19 0 -33 14t-14 33t14 33t33 14t32.5 -13.5t13.5 -33.5t-13.5 -33.5t-32.5 -13.5z" />
<glyph unicode="&#xf67a;" horiz-adv-x="509" d="M457 0h-382v550h382v-69h-304v-165h299v-69h-299v-178h304v-69zM446 622h-363v48h363v-48z" />
<glyph unicode="&#xf67b;" horiz-adv-x="632" d="M368 -196q-93 0 -149 68l37 57q43 -56 107 -56q53 0 84 31t31 82v14l-325 428v-428h-78v550h82l321 -420v420h79v-570q0 -86 -52.5 -131t-136.5 -45z" />
<glyph unicode="&#xf67c;" horiz-adv-x="509" d="M477 -105l37 -21q-26 -60 -89 -60q-38 0 -63.5 22t-25.5 65q0 57 53 99h-314v550h382v-69h-304v-165h299v-69h-299v-178h304v-69q-76 -38 -76 -97q0 -50 44 -50q38 0 52 42z" />
<glyph unicode="&#xf67d;" horiz-adv-x="626" d="M341 -12q-126 0 -210 80t-84 207t84 207t210 80q134 0 221 -101l-61 -41q-60 72 -160 72q-91 0 -152 -61t-61 -156q0 -94 61 -156.5t152 -62.5q87 0 147 58v107h-170v66h248v-203q-89 -96 -225 -96zM517 676q-65 -88 -175 -88q-109 0 -176 88l37 32q52 -72 139 -72 q88 0 138 72z" />
<glyph unicode="&#xf67e;" horiz-adv-x="626" d="M341 -12q-126 0 -210 80t-84 207t84 207t210 80q134 0 221 -101l-61 -41q-60 72 -160 72q-91 0 -152 -61t-61 -156q0 -94 61 -156.5t152 -62.5q87 0 147 58v107h-170v66h248v-203q-89 -96 -225 -96zM474 606h-51l-83 106l-80 -106h-51l95 144h72z" />
</font>
</defs>
</svg>
